↑↓torrent.by
Поиск
Логин: Регистрация
Пароль: Восстановить пароль

Однажды в… Голливуде / Once Upon a Time... in Hollywood (2019) BDRip 1080p от qqss44 & MegaPeer | Лицензия

Скачать odnazhdy-v-gollivude-once-upon-a-time-in-hollywood-2019-bdrip-1080p-ot-qqss44-megapeer-licenziya.torrent
U Магнитная ссылка Размер: 8.62 GB Раздают: 168 Качают: 50 Добавлен: 2019-12-06 04:39:17
Однажды в… Голливуде / Once Upon a Time... in Hollywood (2019) BDRip 1080p от qqss44 & MegaPeer | Лицензия

Информация о фильме
Название: Однажды в… Голливуде
Оригинальное название: Once Upon a Time ... in Hollywood
Год выпуска: 2019
Жанр:  Драма, комедия
Режиссер: Квентин Тарантино
В ролях: Брэд Питт, Леонардо ДиКаприо, Марго Робби, Майя Хоук, Остин Роберт Батлер, Сидни Свини, Маргарет Куэлли, Дакота Фэннинг, Тимоти Олифант, Аль Пачино, Эмиль Хирш, Джулия Баттерз, Брюс Дерн

О фильме:
Фильм повествует о череде событий, произошедших в Голливуде в 1969 году, на закате его «золотого века». По сюжету, известный ТВ актер Рик Далтон и его дублер Клифф Бут пытаются найти свое место в стремительно меняющемся мире киноиндустрии.

Страна: Великобритания, США, Китай
Студия: Bona Film Group, Heyday Films, Sony Pictures Entertainment
Продолжительность: 02:41:29
Перевод: Дублированный | Лицензия

Файл
Формат: MKV, BDRip 1080p
Видео: MPEG-4 AVC, 7000 Кбит/с, 1920x800
Aудио#1: [RUS] AC3 | 48 KHz | 5.1 (Front: L С R Side: L R) + LFE | ~640 kbps
Субтитры: русские форсированные и полные (отключаемые, srt)
Релиз:


[+] МИ

Общее
Уникальный идентификатор : 229975041009177464047452403188269691660 (0xAD0394F075B71314BC2D15477A6DB30C)
Полное имя : H:Once.Upon.a.Time.in.Hollywood.(2019).BDRip-1080p.MegaPeer.(qqss44).mkv
Формат : Matroska
Версия формата : Version 2
Размер файла : 8,62 Гбайт
Продолжительность : 2 ч. 41 м.
Общий поток : 7645 Кбит/сек
Название фильма : Once.Upon.a.Time.in.Hollywood.(2019).BDRip-1080p.MegaPeer.(qqss44)
Дата кодирования : UTC 2019-12-05 15:35:12
Программа кодирования : mkvmerge v7.8.0 ('River Man') 32bit built on Apr 3 2015 12:11:22
Библиотека кодирования : libebml v1.3.1 + libmatroska v1.4.2

Видео
Идентификатор : 1
Формат : AVC
Формат/Информация : Advanced Video Codec
Профиль формата : High@L4.1
Параметр CABAC формата : Да
Параметр ReFrames формата : 5 кадров
Идентификатор кодека : V_MPEG4/ISO/AVC
Продолжительность : 2 ч. 41 м.
Битрейт : 7000 Кбит/сек
Ширина : 1920 пикселей
Высота : 800 пикселей
Соотношение сторон : 2,40:1
Режим частоты кадров : Постоянный
Частота кадров : 23,976 (24000/1001) кадра/сек
Цветовое пространство : YUV
Субдискретизация насыщенности : 4:2:0
Битовая глубина : 8 бит
Тип развёртки : Прогрессивная
Бит/(Пиксели*Кадры) : 0.190
Размер потока : 7,73 Гбайт (90%)
Библиотека кодирования : x264 core 152 r2851 ba24899
Настройки программы : cabac=1 / ref=5 / deblock=1:-3:-3 / analyse=0x3:0x113 / me=umh / subme=11 / psy=1 / psy_rd=1.00:0.00 / mixed_ref=1 / me_range=32 / chroma_me=1 / trellis=2 / 8x8dct=1 / cqm=0 / deadzone=21,11 / fast_pskip=0 / chroma_qp_offset=-2 / threads=12 / lookahead_threads=2 / sliced_threads=0 / nr=0 / decimate=0 / interlaced=0 / bluray_compat=0 / constrained_intra=0 / bframes=9 / b_pyramid=2 / b_adapt=2 / b_bias=0 / direct=3 / weightb=1 / open_gop=0 / weightp=2 / keyint=250 / keyint_min=23 / scenecut=40 / intra_refresh=0 / rc_lookahead=40 / rc=2pass / mbtree=0 / bitrate=7000 / ratetol=1.0 / qcomp=0.70 / qpmin=0 / qpmax=69 / qpstep=4 / cplxblur=20.0 / qblur=0.5 / vbv_maxrate=50000 / vbv_bufsize=62500 / nal_hrd=none / filler=0 / ip_ratio=1.40 / pb_ratio=1.30 / aq=3:0.90
Язык : English
Default : Да
Forced : Нет

Аудио
Идентификатор : 2
Формат : AC-3
Формат/Информация : Audio Coding 3
Расширение режима : CM (complete main)
Параметр Endianness формата : Big
Идентификатор кодека : A_AC3
Продолжительность : 2 ч. 41 м.
Вид битрейта : Постоянный
Битрейт : 640 Кбит/сек
Каналы : 6 каналов
Расположение каналов : Front: L C R, Side: L R, LFE
Частота : 48,0 КГц
Частота кадров : 31,250 кадров/сек (1536 spf)
Метод сжатия : С потерями
Размер потока : 739 Мбайт (8%)
Язык : Russian
Default : Да
Forced : Нет

Текст #1
Идентификатор : 3
Формат : UTF-8
Идентификатор кодека : S_TEXT/UTF8
Идентификатор кодека/Информация : UTF-8 Plain Text
Заголовок : FORCED
Язык : Russian
Default : Да
Forced : Нет

Текст #2
Идентификатор : 4
Формат : UTF-8
Идентификатор кодека : S_TEXT/UTF8
Идентификатор кодека/Информация : UTF-8 Plain Text
Заголовок : FULL
Язык : Russian
Default : Нет
Forced : Нет

Меню
00:00:00.000 : en:00:00:00.000
00:04:49.414 : en:00:04:49.414
00:13:45.199 : en:00:13:45.199
00:18:29.150 : en:00:18:29.150
00:22:00.319 : en:00:22:00.319
00:25:59.349 : en:00:25:59.349
00:28:41.094 : en:00:28:41.094
00:33:45.106 : en:00:33:45.106
00:40:19.334 : en:00:40:19.334
00:49:59.455 : en:00:49:59.455
00:51:48.689 : en:00:51:48.689
00:59:52.255 : en:00:59:52.255
01:02:32.874 : en:01:02:32.874
01:04:28.615 : en:01:04:28.615
01:09:16.736 : en:01:09:16.736
01:17:40.781 : en:01:17:40.781
01:20:25.779 : en:01:20:25.779
01:26:28.433 : en:01:26:28.433
01:32:54.444 : en:01:32:54.444
01:39:58.492 : en:01:39:58.492
01:47:55.219 : en:01:47:55.219
01:53:00.232 : en:01:53:00.232
01:58:09.541 : en:01:58:09.541
02:06:23.993 : en:02:06:23.993
02:11:22.958 : en:02:11:22.958
02:15:50.100 : en:02:15:50.100
02:21:30.190 : en:02:21:30.190
02:29:50.732 : en:02:29:50.732
02:36:28.254 : en:02:36:28.254
02:38:51.230 : en:02:38:51.230




Скриншоты:
[+] Всего файлов в раздаче - 1:
Once.Upon.a.Time.in.Hollywood.(2019).BDRip-1080p.MegaPeer.(qqss44).mkv8.62 GB

Показать еще раздачи по запросу однажды:
2020-03-27 U Однажды в России [07х01-02] (2020) WEBRip 720p от Files-x 1.95 GB ↑ 108 ↓ 129
2020-03-24 U Однажды... Тарантино / 21 Years: Quentin Tarantino (2019) BDRip 1080p 8.16 GB ↑ 35 ↓ 26
2020-03-21 U Однажды... Тарантино / 21 Years: Quentin Tarantino (2019) BDRip от MegaPeer | iTunes 1.46 GB ↑ 98 ↓ 61
2020-03-20 U Однажды в России [07х01] (2020) WEBRip 720p от Files-x 1.00 GB ↑ 101 ↓ 28
2020-03-14 U Однажды в России [06х01-21] (2019) WEBRip 720p от Files-x 21.30 GB ↑ 29 ↓ 107
2020-03-07 U Однажды в России [06х01-20] (2019) WEBRip 720p от Files-x 20.28 GB ↑ 47 ↓ 119
2020-01-07 U Однажды в России [06х01-18] (2019) WEBRip 720p от Files-x 18.32 GB ↑ 57 ↓ 84

Отзывы
Зарегистрируйтесь чтобы добавить комментарий.
Обратная связь
Copyleft ©