↑↓torrent.by
Поиск
Логин: Регистрация
Пароль: Восстановить пароль

Аладдин / Aladdin (2019) BDRip 1080p от qqss44 & MegaPeer | Лицензия

Скачать aladdin-2019-bdrip-1080p-ot-qqss44-megapeer-licenziya.torrent
U Магнитная ссылка Размер: 7.75 GB Раздают: 328 Качают: 13 Добавлен: 2019-12-08 13:55:50
Аладдин / Aladdin (2019) BDRip 1080p от qqss44 & MegaPeer | Лицензия

Анонсы 1080p от qqss44

Информация о фильме
Название: Аладдин
Оригинальное название: Aladdin
Год выпуска: 2019
Жанр:  Мюзикл, фэнтези, мелодрама, комедия, приключения, семейный
Режиссер: Гай Ричи
В ролях: Мена Массуд, Наоми Скотт, Уилл Смит, Билли Магнуссен, Алан Тьюдик, Назим Педрад, Марван Кензари, Нуман Аджар, Фрэнк Уэлкер, Навид Негабан

О фильме:
Молодой воришка по имени Аладдин хочет стать принцем, чтобы жениться на принцессе Жасмин. Тем временем визирь Аграбы Джафар, намеревается захватить власть над Аграбой, а для этого он стремится заполучить волшебную лампу, хранящуюся в пещере чудес, доступ к которой разрешен лишь тому, кого называют «алмаз неограненный», и этим человеком является никто иной как сам Аладдин.

Страна: США
Студия: Walt Disney Pictures, Lin Pictures, Rideback
Продолжительность: 02:07:58
Перевод: Дублированный | Лицензия

Файл
Формат: MKV, BDRip 1080p
Видео: MPEG-4 AVC, 8028 Кбит/с, 1920x804
Aудио#1: [RUS] AC3 | 48 KHz | 5.1 (Front: L С R Side: L R) + LFE | ~640 kbps
Субтитры: русские полные (отключаемые, srt)
Релиз от:


[+] МИ

Общее
Уникальный идентификатор : 211786554949834701346173424932235768392 (0x9F549B5738CBB93E970B62727C63F248)
Полное имя : H:Aladdin.(2019).BDRip-1080p.MegaPeer.(qqss44).mkv
Формат : Matroska
Версия формата : Version 2
Размер файла : 7,75 Гбайт
Продолжительность : 2 ч. 7 м.
Общий поток : 8668 Кбит/сек
Название фильма : Aladdin.(2019).BDRip-1080p.MegaPeer.(qqss44)
Дата кодирования : UTC 2019-12-08 12:12:55
Программа кодирования : mkvmerge v7.8.0 ('River Man') 32bit built on Apr 3 2015 12:11:22
Библиотека кодирования : libebml v1.3.1 + libmatroska v1.4.2

Видео
Идентификатор : 1
Формат : AVC
Формат/Информация : Advanced Video Codec
Профиль формата : High@L4.1
Параметр CABAC формата : Да
Параметр ReFrames формата : 5 кадров
Идентификатор кодека : V_MPEG4/ISO/AVC
Продолжительность : 2 ч. 7 м.
Битрейт : 8028 Кбит/сек
Ширина : 1920 пикселей
Высота : 804 пикселя
Соотношение сторон : 2,40:1
Режим частоты кадров : Постоянный
Частота кадров : 23,976 (24000/1001) кадра/сек
Цветовое пространство : YUV
Субдискретизация насыщенности : 4:2:0
Битовая глубина : 8 бит
Тип развёртки : Прогрессивная
Бит/(Пиксели*Кадры) : 0.217
Размер потока : 7,02 Гбайт (91%)
Библиотека кодирования : x264 core 152 r2851 ba24899
Настройки программы : cabac=1 / ref=5 / deblock=1:0:0 / analyse=0x3:0x113 / me=umh / subme=11 / psy=1 / psy_rd=1.00:0.00 / mixed_ref=1 / me_range=32 / chroma_me=1 / trellis=2 / 8x8dct=1 / cqm=0 / deadzone=21,11 / fast_pskip=0 / chroma_qp_offset=-2 / threads=12 / lookahead_threads=2 / sliced_threads=0 / nr=0 / decimate=0 / interlaced=0 / bluray_compat=0 / constrained_intra=0 / bframes=9 / b_pyramid=2 / b_adapt=2 / b_bias=0 / direct=3 / weightb=1 / open_gop=0 / weightp=2 / keyint=250 / keyint_min=23 / scenecut=40 / intra_refresh=0 / rc_lookahead=40 / rc=2pass / mbtree=0 / bitrate=8028 / ratetol=1.0 / qcomp=0.70 / qpmin=0 / qpmax=69 / qpstep=4 / cplxblur=20.0 / qblur=0.5 / vbv_maxrate=50000 / vbv_bufsize=62500 / nal_hrd=none / filler=0 / ip_ratio=1.40 / pb_ratio=1.30 / aq=3:0.90
Язык : English
Default : Да
Forced : Нет

Аудио
Идентификатор : 2
Формат : AC-3
Формат/Информация : Audio Coding 3
Расширение режима : CM (complete main)
Параметр Endianness формата : Big
Идентификатор кодека : A_AC3
Продолжительность : 2 ч. 7 м.
Вид битрейта : Постоянный
Битрейт : 640 Кбит/сек
Каналы : 6 каналов
Расположение каналов : Front: L C R, Side: L R, LFE
Частота : 48,0 КГц
Частота кадров : 31,250 кадров/сек (1536 spf)
Метод сжатия : С потерями
Размер потока : 586 Мбайт (7%)
Язык : Russian
Default : Да
Forced : Нет

Текст
Идентификатор : 3
Формат : UTF-8
Идентификатор кодека : S_TEXT/UTF8
Идентификатор кодека/Информация : UTF-8 Plain Text
Язык : Russian
Default : Нет
Forced : Нет

Меню
00:00:00.000 : en:Chapter 01
00:04:49.372 : en:Chapter 02
00:13:04.659 : en:Chapter 03
00:18:55.760 : en:Chapter 04
00:26:18.410 : en:Chapter 05
00:30:26.324 : en:Chapter 06
00:39:51.889 : en:Chapter 07
00:54:50.162 : en:Chapter 08
01:02:18.652 : en:Chapter 09
01:09:19.489 : en:Chapter 11
01:21:53.033 : en:Chapter 12
01:33:51.417 : en:Chapter 13
01:38:48.381 : en:Chapter 14
01:45:19.396 : en:Chapter 15
01:53:07.030 : en:Chapter 16
01:59:38.463 : en:Chapter 17




Скриншоты:
[+] Всего файлов в раздаче - 1:
Aladdin.(2019).BDRip-1080p.MegaPeer.(qqss44).mkv7.75 GB

Показать еще раздачи по запросу аладдин:
2020-01-09 U Аладдин / Aladdin (2019) BDRip от HQ-ViDEO | D | Лицензия 2.18 GB ↑ 48 ↓ 18
2019-10-06 U Аладдин / Aladdin (2019) HDRip от Scarabey | Лицензия 2.17 GB ↑ 75 ↓ 11
2019-10-03 U Аладдин / Aladdin (2019) BDRip от MegaPeer | Лицензия 1.46 GB ↑ 213 ↓ 117
2019-09-04 U Аладдин / Aladdin (2019) BDRip от Twister & ExKinoRay | iTunes 2.13 GB ↑ 292 ↓ 16
2019-09-03 U Аладдин / Aladdin (2019) BDRip 720p от Scarabey | iTunes 5.91 GB ↑ 98 ↓ 32
2019-09-01 U Аладдин / Aladdin (2019) HDRip от Scarabey | iTunes 794.55 MB ↑ 178 ↓ 37
2019-09-01 U Аладдин / Aladdin (2019) BDRip 1080p от ExKinoRay | iTunes, P 12.80 GB ↑ 116 ↓ 24

Отзывы
Зарегистрируйтесь чтобы добавить комментарий.
Обратная связь
Copyleft ©