↑↓torrent.by
Поиск
Логин: Регистрация
Пароль: Восстановить пароль

Ирландец / The Irishman (2019) WEB-DL 1080p | D, P, A

Скачать irlandec-the-irishman-2019-web-dl-1080p-d-p-a.torrent
U Магнитная ссылка Размер: 13.88 GB Раздают: 112 Качают: 56 Добавлен: 2019-12-09 15:43:00
Ирландец / The Irishman (2019) WEB-DL 1080p | D, P, A

Название: Ирландец
Оригинальное название: The Irishman
Год выхода: 2019
Жанр: драма, криминал, биография
Режиссер: Мартин Скорсезе
В ролях: Роберт Де Ниро, Анна Пэкуин, Аль Пачино, Джо Пеши, Алекса Палладино, Джесси Племонс, Харви Кейтель, Бобби Каннавале, Стивен Грэм, Джек Хьюстон, Доменик Ломбардоззи, Кэтрин Нардуччи, Рэй Романо, Себастьян Манискалко, Джейк Хоффман, Пол Бен-Виктор

О фильме: Фрэнк Ширан, носивший кличку Ирландец, был на первый взгляд обычным американским обывателем. Примерный семьянин с женой и четырьмя детьми, бывший ветеран войны, любитель умеренной выпивки. Но под внешней маской скрывался человек, родившийся в Ирландии в семье с суровым отцом, помешанным на боксе. Человек, который провел на войне столько дней, что разучился нормально спать и нормально жить. Его тяга к спиртному была прямым следствием посттравматического синдрома, от которого бывшего солдата не могли спасти никакие семейные радости. Именно этот человек на старости лет сделает признание в том, что убил свыше 30 важных представителей мафии.

Страна: США
Студия: Fabrica de Cine, STX Entertainment, Sikelia Productions, Tribeca Productions
Продолжительность: 03:29:26
Перевод: Профессиональный (дублированный), Профессиональный (многоголосый закадровый), Авторский (одноголосый закадровый)

Файл
Качество: WEB-DL 1080p
Формат: Matroska
Видео: 1920x1080 at 24.000 fps, MPEG-4 AVC, ~6800 kbps avg
Аудио#1: Russian: 48 kHz, E-AC3, 3/2 (L,C,R,l,r) + LFE ch, ~640 kbps avg |Дубляж, Пифагор по заказу Netflix|
Аудио#2: Russian: 48 kHz, AC3, 3/2 (L,C,R,l,r) + LFE ch, ~640 kbps avg |Многоголосый закадровый, Jaskier|
Аудио#3: Russian: 48 kHz, AC3, 3/2 (L,C,R,l,r) + LFE ch, ~640 kbps avg |Авторский, Ю.Сербин|
Аудио#4: English: 48 kHz, E-AC3 JOC, 3/2 (L,C,R,l,r) + LFE ch, ~768 kbps avg
Субтитры: Russian (Forced, Full), English (Forced, Full, SDH)

***Примечание: Без рекламы
***Релиз: Wilmots@EniaHD


[+] Знаете ли вы, что...
Фильм основан на книге Чарльза Брандта «Я слышал, ты красишь дома» («I Heard You Paint Houses»). На сленге американской организованной преступности человек, красящий дома, – это киллер.
Чтобы свести вместе Мартина Скорсезе, Роберта Де Ниро, Аль Пачино и Джо Пеши, компания Netflix заплатила $105 миллионов.



[+] Доп. информация
***Дорожка#3 получена наложением чистого голоса на центр декодированного E-AC3 5.1 (работа со звуком - drobovik)
***Перевод Ю.Сербина осуществлен в рамках сервиса "Краудфандинг". Спонсоры:
Rutracker - zeliboba15, insect13, iogan111, kikoru1, ochkarik1, hzdaun, apollion2007, tsiboul, Kedens, areal205Y, random_hero, barthess, marfakrysa, lknsd, ClockworkOrange2001, Beach, CuMoH, Darikstepan, shurick9303, soprano79, kost1985
E180 - axl-dr, empireisky, Semvlk, литти_07, Evromaster, planshetist, chontvari, luka69, Roman Lee, barvinok13, drobovik, hdrmv12, Dyermaker, ZeDOK, oleg-k, Pro_Rock_, kiruxa-k, Cyberclean, Wolf_Larsen, Shumway, lazarus2, perrelkin, Ken, Симоннс, GummyBe@r, maximus10-99, olegsoleg, Palmer Eldritch, Iceman, Nadoelo, miracle, Gross1978, Rayan, dir, masta, d0ber.maNN, Денис, fly32, Volshebnik, vik19662007, saenwert, Dervish, Martyr, Gouzer, Ramis, SilverBeast
TeamHD - tambov68, exact, zlodei24, Render71, Valent80, Lawliet13, lagerbeck, goriathid, alexeycezar, digitus, Superbizho, Serenkiy, mishka, KerkP, banan87, dorkid, ntktuf, zulku, ilfat1975, hodgson, Asmodai, neveronizuka, MamonTSan, igrok2012



[+] MediaInfo
General
Unique ID                      : 314810527510247134457393113469392898393 (0xECD64D5B4703FEB8B253DA00BBD9C959)
Complete name                  : The.Irishman.2019.1080p.NF.WEB-DL.DDP5.1.ATMOS.H264-EniaHD.mkv
Format                         : Matroska
Format version                 : Version 4
File size                      : 13.9 GiB
Duration                       : 3 h 29 min
Overall bit rate mode          : Variable
Overall bit rate               : 9 488 kb/s
Movie name                     : The Irishman (2019) - EniaHD
Encoded date                   : UTC 2019-12-08 21:14:40
Writing application            : mkvmerge v41.0.0 ('Smarra') 64-bit
Writing library                : libebml v1.3.9 + libmatroska v1.5.2

Video
ID                             : 1
Format                         : AVC
Format/Info                    : Advanced Video Codec
Format profile                 : High@L4
Format settings                : CABAC / 4 Ref Frames
Format settings, CABAC         : Yes
Format settings, Reference fra : 4 frames
Codec ID                       : V_MPEG4/ISO/AVC
Duration                       : 3 h 29 min
Bit rate mode                  : Variable
Bit rate                       : 6 797 kb/s
Maximum bit rate               : 20.0 Mb/s
Width                          : 1 920 pixels
Height                         : 1 080 pixels
Display aspect ratio           : 16:9
Frame rate mode                : Constant
Frame rate                     : 24.000 FPS
Color space                    : YUV
Chroma subsampling             : 4:2:0
Bit depth                      : 8 bits
Scan type                      : Progressive
Bits/(Pixel*Frame)             : 0.137
Stream size                    : 9.94 GiB (72%)
Writing library                : x264 core 148 r2715 7e75228
Encoding settings              : cabac=1 / ref=4 / deblock=1:0:0 / analyse=0x3:0x111 / me=umh / subme=10 / psy=1 / psy_rd=1.00:0.00 / mixed_ref=1 / me_range=120 / chroma_me=1 / trellis=2 / 8x8dct=1 / cqm=0 / deadzone=21,11 / fast_pskip=1 / chroma_qp_offset=-2 / threads=8 / lookahead_threads=2 / sliced_threads=0 / nr=0 / decimate=1 / interlaced=0 / bluray_compat=0 / stitchable=1 / constrained_intra=0 / bframes=16 / b_pyramid=2 / b_adapt=2 / b_bias=0 / direct=3 / weightb=1 / open_gop=0 / weightp=2 / keyint=240 / keyint_min=121 / scenecut=0 / intra_refresh=0 / rc_lookahead=240 / rc=crf / mbtree=1 / crf=16.0 / qcomp=0.50 / qpmin=6 / qpmax=51 / qpstep=4 / vbv_maxrate=20000 / vbv_bufsize=25000 / crf_max=0.0 / nal_hrd=vbr / filler=0 / ip_ratio=1.40 / aq=1:0.80
Default                        : Yes
Forced                         : No

Audio #1
ID                             : 2
Format                         : E-AC-3
Format/Info                    : Enhanced AC-3
Commercial name                : Dolby Digital Plus
Codec ID                       : A_EAC3
Duration                       : 3 h 29 min
Bit rate mode                  : Constant
Bit rate                       : 640 kb/s
Channel(s)                     : 6 channels
Channel layout                 : L R C LFE Ls Rs
Sampling rate                  : 48.0 kHz
Frame rate                     : 31.250 FPS (1536 SPF)
Compression mode               : Lossy
Stream size                    : 959 MiB (7%)
Title                          : Dub
Language                       : Russian
Service kind                   : Complete Main
Default                        : Yes
Forced                         : No

Audio #2
ID                             : 3
Format                         : AC-3
Format/Info                    : Audio Coding 3
Commercial name                : Dolby Digital
Codec ID                       : A_AC3
Duration                       : 3 h 29 min
Bit rate mode                  : Constant
Bit rate                       : 640 kb/s
Channel(s)                     : 6 channels
Channel layout                 : L R C LFE Ls Rs
Sampling rate                  : 48.0 kHz
Frame rate                     : 31.250 FPS (1536 SPF)
Compression mode               : Lossy
Stream size                    : 959 MiB (7%)
Title                          : Jaskier
Language                       : Russian
Service kind                   : Complete Main
Default                        : No
Forced                         : No

Audio #3
ID                             : 4
Format                         : AC-3
Format/Info                    : Audio Coding 3
Commercial name                : Dolby Digital
Codec ID                       : A_AC3
Duration                       : 3 h 29 min
Bit rate mode                  : Constant
Bit rate                       : 640 kb/s
Channel(s)                     : 6 channels
Channel layout                 : L R C LFE Ls Rs
Sampling rate                  : 48.0 kHz
Frame rate                     : 31.250 FPS (1536 SPF)
Compression mode               : Lossy
Stream size                    : 959 MiB (7%)
Title                          : Serbin
Language                       : Russian
Service kind                   : Complete Main
Default                        : No
Forced                         : No

Audio #4
ID                             : 5
Format                         : E-AC-3 JOC
Format/Info                    : Enhanced AC-3 with Joint Object Coding
Commercial name                : Dolby Digital Plus with Dolby Atmos
Codec ID                       : A_EAC3
Duration                       : 3 h 29 min
Bit rate mode                  : Constant
Bit rate                       : 768 kb/s
Channel(s)                     : 6 channels
Channel layout                 : L R C LFE Ls Rs
Sampling rate                  : 48.0 kHz
Frame rate                     : 31.250 FPS (1536 SPF)
Compression mode               : Lossy
Stream size                    : 1.12 GiB (8%)
Title                          : Original
Language                       : English
Service kind                   : Complete Main
Default                        : No
Forced                         : No
Complexity index               : 16
Number of dynamic objects      : 15
Bed channel count              : 1 channel
Bed channel configuration      : LFE

Text #1
ID                             : 6
Format                         : UTF-8
Codec ID                       : S_TEXT/UTF8
Codec ID/Info                  : UTF-8 Plain Text
Duration                       : 3 h 28 min
Bit rate                       : 10 b/s
Count of elements              : 215
Stream size                    : 15.4 KiB (0%)
Title                          : Forced
Language                       : Russian
Default                        : Yes
Forced                         : Yes

Text #2
ID                             : 7
Format                         : UTF-8
Codec ID                       : S_TEXT/UTF8
Codec ID/Info                  : UTF-8 Plain Text
Duration                       : 3 h 28 min
Bit rate                       : 96 b/s
Count of elements              : 2973
Stream size                    : 147 KiB (0%)
Title                          : Full
Language                       : Russian
Default                        : No
Forced                         : No

Text #3
ID                             : 8
Format                         : UTF-8
Codec ID                       : S_TEXT/UTF8
Codec ID/Info                  : UTF-8 Plain Text
Duration                       : 57 s 292 ms
Bit rate                       : 47 b/s
Count of elements              : 17
Stream size                    : 343 Bytes (0%)
Title                          : Forced
Language                       : English
Default                        : No
Forced                         : No

Text #4
ID                             : 9
Format                         : UTF-8
Codec ID                       : S_TEXT/UTF8
Codec ID/Info                  : UTF-8 Plain Text
Duration                       : 3 h 16 min
Bit rate                       : 68 b/s
Count of elements              : 2927
Stream size                    : 98.6 KiB (0%)
Title                          : Full
Language                       : English
Default                        : No
Forced                         : No

Text #5
ID                             : 10
Format                         : UTF-8
Codec ID                       : S_TEXT/UTF8
Codec ID/Info                  : UTF-8 Plain Text
Duration                       : 3 h 20 min
Bit rate                       : 87 b/s
Count of elements              : 3813
Stream size                    : 129 KiB (0%)
Title                          : SDH
Language                       : English
Default                        : No
Forced                         : No



Скриншоты:
[+] Всего файлов в раздаче - 1:
The.Irishman.2019.1080p.NF.WEB-DL.DDP5.1.ATMOS.H264-EniaHD.mkv13.88 GB

Показать еще раздачи по запросу ирландец:
2019-12-20 U Ирландец / The Irishman (2019) WEB-DL 720p | NewStudio, Jaskier 6.49 GB ↑ 63 ↓ 38
2019-12-11 U OST - Ирландец / The Irishman (2019) MP3 139.32 MB ↑ 107 ↓ 13
2019-12-09 U Ирландец / The Irishman (2019) WEB-DLRip-AVC от ExKinoRay | P, A 4.06 GB ↑ 119 ↓ 36
2019-11-30 U Ирландец / The Irishman (2019) WEB-DLRip | КПК | D 746.80 MB ↑ 121 ↓ 25
2019-11-30 U Ирландец / The Irishman (2019) WEB-DLRip от Scarabey | Пифагор 1.45 GB ↑ 190 ↓ 49
2019-11-29 U Ирландец / The Irishman (2019) UHD WEB-DL 2160p от селезень | 4K | HDR | D 27.19 GB ↑ 252 ↓ 321
2019-11-29 U Ирландец / The Irishman (2019) WEB-DL 1080p от Scarabey | Пифагор 10.60 GB ↑ 498 ↓ 58

Отзывы
Зарегистрируйтесь чтобы добавить комментарий.
Обратная связь
Copyleft ©