↑↓torrent.by
Поиск
Логин: Регистрация
Пароль: Восстановить пароль

Рэмбо: Последняя кровь / Rambo: Last Blood (2019) UHD BDRemux 2160p от селезень | 4K | HDR | Dolby Vision TV | Театральная версия | iTunes

Скачать rembo-poslednyaya-krov-rambo-last-blood-2019-uhd-bdremux-2160p-ot-selezen-4k-hdr-dolby-vision-tv-teatralnaya-versiya-itunes.torrent
U Магнитная ссылка Размер: 35.57 GB Раздают: 46 Качают: 24 Добавлен: 2019-12-10 06:22:49
Рэмбо: Последняя кровь / Rambo: Last Blood (2019) UHD BDRemux 2160p от селезень | 4K | HDR | Dolby Vision TV | Театральная версия | iTunes

Название: Рэмбо: Последняя кровь
Оригинальное название: Rambo: Last Blood
Год выхода: 2019
Жанр: Боевик, триллер, приключения
Режиссер: Адриан Грюнберг
В ролях: Сильвестр Сталлоне, Пас Вега, Ивет Монреаль, Луис Мэндилор, Оскар Хаенада, Шила Шах, Серхио Перис-Менчета, Джессика Мэдсен, Хоакин Косио, Адриана Барраса, Джени Ким, Паскасио Лопес, Александр Димитров

О фильме: Он хранил секреты всю жизнь, но пришло время взглянуть в глаза прошлому. В последний раз собраться и стать безжалостной машиной для убийства. Рэмбо снова встанет на смертельно опасный путь — путь мести, который ему придется пройти до конца.

Страна: США, Испания, Болгария
Студия: Balboa Productions, Campbell Grobman Films, Dadi Film Group
Продолжительность: 01:29:28
Перевод: Дублированный | iTunes

Качество: BDRemux 2160p
Видео: 3840x2160 at 23.976 fps, MPEG-H HEVC HDR, Dolby Vision Video, 50600 kbps avg
Аудио: 48 kHz, AC3, 5.1, 384 Kbps | iTunes | RUS |
Субтитры: Нет

Релиз:


[+] MI
General
Complete name               : F:Video111Rambo.Last.Blood.2019.BDREMUX.2160p.DV.HDR.seleZen.mp4
Format                      : MPEG-4
Format profile              : Base Media / Version 2
Codec ID                    : mp42 (mp42/dby1/isom)
File size                   : 35.6 GiB
Duration                    : 1 h 29 min
Overall bit rate            : 56.9 Mb/s
Encoded date                : UTC 2019-12-09 10:21:49
Tagged date                 : UTC 2019-12-09 10:21:49

Video #1
ID                          : 1
Format                      : HEVC
Format/Info                 : High Efficiency Video Coding
Format profile              : Main 10@L5.1@High
HDR format                  : SMPTE ST 2086, HDR10 compatible
Codec ID                    : hev1
Codec ID/Info               : High Efficiency Video Coding
Duration                    : 1 h 29 min
Bit rate                    : 50.6 Mb/s
Width                       : 3 840 pixels
Height                      : 2 160 pixels
Display aspect ratio        : 16:9
Frame rate mode             : Constant
Frame rate                  : 23.976 (24000/1001) FPS
Color space                 : YUV
Chroma subsampling          : 4:2:0 (Type 2)
Bit depth                   : 10 bits
Bits/(Pixel*Frame)          : 0.255
Stream size                 : 31.6 GiB (89%)
Default                     : No
Encoded date                : UTC 2019-12-09 10:21:49
Tagged date                 : UTC 2019-12-09 10:21:49
Color range                 : Limited
Color primaries             : BT.2020
Transfer characteristics    : PQ
Matrix coefficients         : BT.2020 non-constant
Mastering display color pri : Display P3
Mastering display luminance : min: 0.0010 cd/m2, max: 1000 cd/m2
Maximum Content Light Level : 1000 cd/m2
Maximum Frame-Average Light : 475 cd/m2
SEI_rbsp_stop_one_bit       : Missing
Codec configuration box     : hvcC

Video #2
ID                          : 2
Format                      : HEVC
Format/Info                 : High Efficiency Video Coding
Format profile              : Main 10@L5.1@High
HDR format                  : Dolby Vision, Version 1.0, dvhe.07.06, EL+RPU / SMPTE ST 2086, HDR10 compatible
Codec ID                    : dvhe
Codec ID/Info               : High Efficiency Video Coding with Dolby Vision
Duration                    : 1 h 29 min
Bit rate                    : 5 883 kb/s
Width                       : 1 920 pixels
Height                      : 1 080 pixels
Display aspect ratio        : 16:9
Frame rate mode             : Constant
Frame rate                  : 23.976 (24000/1001) FPS
Color space                 : YUV
Chroma subsampling          : 4:2:0 (Type 2)
Bit depth                   : 10 bits
Bits/(Pixel*Frame)          : 0.118
Stream size                 : 3.68 GiB (10%)
Default                     : No
Encoded date                : UTC 2019-12-09 10:21:49
Tagged date                 : UTC 2019-12-09 10:21:49
Color range                 : Limited
Color primaries             : BT.2020
Transfer characteristics    : PQ
Matrix coefficients         : BT.2020 non-constant
Mastering display color pri : Display P3
Mastering display luminance : min: 0.0010 cd/m2, max: 1000 cd/m2
Codec configuration box     : hvcC+dvcC

Audio
ID                          : 3
Format                      : AC-3
Format/Info                 : Audio Coding 3
Commercial name             : Dolby Digital
Codec ID                    : ac-3
Duration                    : 1 h 29 min
Bit rate mode               : Constant
Bit rate                    : 384 kb/s
Channel(s)                  : 6 channels
Channel layout              : L R C LFE Ls Rs
Sampling rate               : 48.0 kHz
Frame rate                  : 31.250 FPS (1536 SPF)
Bit depth                   : 16 bits
Compression mode            : Lossy
Stream size                 : 246 MiB (1%)
Language                    : Russian
Service kind                : Complete Main
Default                     : No
Encoded date                : UTC 2019-12-09 10:21:49
Tagged date                 : UTC 2019-12-09 10:21:49



Скриншоты:
[+] Всего файлов в раздаче - 1:
Rambo.Last.Blood.2019.BDREMUX.2160p.DV.HDR.seleZen.mp435.57 GB

Показать еще раздачи по запросу рэмбо:
2019-12-18 U Рэмбо: Последняя кровь / Rambo: Last Blood (2019) BDRip 720p от селезень | Расширенная версия | iTunes 3.52 GB ↑ 55 ↓ 18
2019-12-18 U Рэмбо: Последняя кровь / Rambo: Last Blood (2019) BDRemux 1080p от селезень | Расширенная версия | iTunes 15.15 GB ↑ 46 ↓ 24
2019-12-18 U Рэмбо: Последняя кровь / Rambo: Last Blood (2019) BDRip 1080p от селезень | Расширенная версия | iTunes 7.16 GB ↑ 106 ↓ 35
2019-12-18 U Рэмбо: Последняя кровь / Rambo: Last Blood (2019) BDRip от MegaPeer | Расширенная версия | iTunes 1.42 GB ↑ 204 ↓ 40
2019-12-09 U Рэмбо: Последняя кровь / Rambo: Last Blood (2019) HDRip-AVC от ExKinoRay | iTunes | Расширенная версия / Extended Cut 1.40 GB ↑ 177 ↓ 50
2019-12-08 U Рэмбо: Последняя кровь / Rambo: Last Blood (2019) BDRip 1080p от селезень | iTunes 8.97 GB ↑ 211 ↓ 126
2019-12-05 U Рэмбо: Последняя кровь / Rambo: Last Blood (2019) HDRip от Scarabey | iTunes 1.40 GB ↑ 190 ↓ 41

Отзывы
Зарегистрируйтесь чтобы добавить комментарий.
Обратная связь
Copyleft ©