↑↓torrent.by
Поиск
Логин: Регистрация
Пароль: Восстановить пароль

Барс / Касл [01-14 из 34] (2018) SATRip от Files-x

Скачать bars-kasl-01-14-iz-34-2018-satrip-ot-files-x.torrent
U Магнитная ссылка Размер: 7.07 GB Раздают: 36 Качают: 87 Добавлен: 2019-12-11 09:49:02
Барс / Касл [01-14 из 34] (2018) SATRip от Files-x

Оригинальное название: Барс(Касл)
Год выхода: 2018
Жанр: Детектив
Режиссер: Алексей Чистиков, Дмитрий Магонов, Павел Смирнов (II)
В ролях: Алексей Чумаков, Анна Снаткина, Лариса Удовиченко, Екатерина Воронина (II), Степан Абрамов, Максим Ковалевский, Сергей Беляев, Светлана Захарова (II), Дарина Рыхлицкая, Алена Левкович, Алексей Кирилин, Василий Шмаков, Полина Борунова, Анатолий Калмыков, Андрей Кошевой, Елизавета Лотова, Александр Пугачёв (II), Дмитрий Радонов, Виктория Коваленко, Дмитрий Комов, Елена Котельникова, Венчислав Хотяновский, Виктория Рунцова, Владимир Чуприков, Анна Глаубэ, Сергей Долготович, Андрей Андровский, Ирина Баринова, Сергей Хрусталёв, Александра Каштанова, Александр Андриенко, Ярослав Гарнаев, Анна Соловейчик, Наталья Третьякова, Ева Авеева, Юлия Юрченко, Сергей Тезов, Матвей Сотириади, Армен Гаспарян (II)

О фильме:
Российская адаптация одноименного известного американского проекта. Александр Барс - автор серии невероятно популярных детективов. Он родился и вырос в Москве. Его мать - знаменитая актриса. С детства Александр привык вращаться в театральном мире, жить в веселой богемной атмосфере, свободной от предрассудков, что отразилось на его характере. Состоятельный и привлекательный, со счетами в банках и хорошим домом в престижном районе Москвы. Он вращается в высших кругах общества, любимец и любитель женщин. Его «фишка» - ставить подпись на декольте своих фанаток. Словом, он светский лев в полном смысле этого слова. Но вместе с этим легкий в общении, лишен высокомерия и легко находит общий язык со всеми без исключения. Герой Чумакова забавный и постоянно попадает в смешные ситуации. Сам Чумаков принципиально не смотрел западный «Касл», чтобы иметь свободу в творчестве. Полная противоположность Барсу - майор Королева. Самая молодая женщина-детектив в полиции Москвы. Актрисе Анне Снаткиной без труда удалось сыграть совершенно несентиментальную «снежную королеву», красивую, умную, с прекрасным чувством юмора. Королева пошла в полицию после смерти матери, дело которой так и не было раскрыто. Героиня Снаткиной отлично стреляет, в совершенстве владеет приемами рукопашного боя и не признает мимолетных увлечений. Она встретила Барса в штыки, поскольку для нее известный писатель - типичный пустозвон и самоуверенный нахал. Сможет ли светский лев покорить сердце «снежной королевы»?

Страна: Россия
Студия: Производство «ПтицаФильм», Произведено ЗАО Всемирные Русские Студии совместно с ABC STUDIOS
Продолжительность: 14 х 00:42:54
Перевод: Не требуется

Файл
Кодек: XviD
Качество: SATRip
Видео: XviD, ~ 1597 Кбит/с, 720x400, 25 кадр/с
Звук: AC3, 2 ch, 192 Кбит/с

Релиз:


[+] MediaInfo

General
Complete name: C:01.Барс (Касл).(2018).SATRip.by.Nicodem.Files-x.avi
Format: AVI
Format/Info: Audio Video Interleave
File size: 527 MiB
Duration: 42mn 54s
Overall bit rate: 1 718 Kbps
Writing application: VirtualDubMod 1.5.10.3 | www.virtualdub-fr.org || (build 2550/release)
Writing library: VirtualDubMod build 2550/release

Video
ID: 0
Format: MPEG-4 Visual
Format profile: Advanced Simple@L5
Format settings, BVOP: 1
Format settings, QPel: No
Format settings, GMC: No warppoints
Format settings, Matrix: Custom
Codec ID: XVID
Codec ID/Hint: XviD
Duration: 42mn 54s
Bit rate: 1 517 Kbps
Width: 720 pixels
Height: 400 pixels
Display aspect ratio: 16:9
Frame rate: 25.000 fps
Color space: YUV
Chroma subsampling: 4:2:0
Bit depth: 8 bits
Scan type: Progressive
Compression mode: Lossy
Bits/(Pixel*Frame): 0.211
Stream size: 465 MiB (88%)
Writing library: XviD 73

Audio
ID: 1
Format: AC-3
Format/Info: Audio Coding 3
Mode extension: CM (complete main)
Codec ID: 2000
Duration: 42mn 54s
Bit rate mode: Constant
Bit rate: 192 Kbps
Channel(s): 2 channels
Channel positions: Front: L R
Sampling rate: 48.0 KHz
Bit depth: 16 bits
Compression mode: Lossy
Stream size: 58.9 MiB (11%)
Alignment: Split accross interleaves
Interleave, duration: 40 ms (1.00 video frame)
Interleave, preload duration: 500 ms



Скриншоты:
[+] Всего файлов в раздаче - 14:
07.Барс (Касл).(2018).SATRip.by.Nicodem.Files-x.avi510.04 MB
03.Барс (Касл).(2018).SATRip.by.Nicodem.Files-x.avi510.07 MB
05.Барс (Касл).(2018).SATRip.by.Nicodem.Files-x.avi510.10 MB
14.Барс (Касл).(2018).SATRip.by.Nicodem.Files-x.avi510.14 MB
02.Барс (Касл).(2018).SATRip.by.Nicodem.Files-x.avi510.17 MB
13.Барс (Касл).(2018).SATRip.by.Nicodem.Files-x.avi510.20 MB
06.Барс (Касл).(2018).SATRip.by.Nicodem.Files-x.avi510.22 MB
04.Барс (Касл).(2018).SATRip.by.Nicodem.Files-x.avi510.24 MB
10.Барс (Касл).(2018).SATRip.by.Nicodem.Files-x.avi510.26 MB
08.Барс (Касл).(2018).SATRip.by.Nicodem.Files-x.avi510.29 MB
12.Барс (Касл).(2018).SATRip.by.Nicodem.Files-x.avi510.30 MB
01.Барс (Касл).(2018).SATRip.by.Nicodem.Files-x.avi527.40 MB
09.Барс (Касл).(2018).SATRip.by.Nicodem.Files-x.avi550.13 MB
11.Барс (Касл).(2018).SATRip.by.Nicodem.Files-x.avi550.15 MB

Похожие раздачи по запросу - барс:
2020-01-27 U Барс / Касл [01-34 из 34] (2018) SATRip от Files-x 17.07 GB ↑ 40 ↓ 69
2020-01-26 U Барс / Касл [01х01-34 из 34] (2019) SATRip-AVC 15.95 GB ↑ 1 ↓ 7
2020-01-22 U Барс / Касл [01-29 из 34] (2018) SATRip от Files-x 14.54 GB ↑ 97 ↓ 81

Отзывы
Зарегистрируйтесь чтобы добавить комментарий.
Обратная связь
Copyleft ©