↑↓torrent.by
Поиск
Логин: Регистрация
Пароль: Восстановить пароль

Верность (2019) WEBRip 1080p

Скачать vernost-2019-webrip-1080p.torrent
U Магнитная ссылка Размер: 2.80 GB Раздают: 843 Качают: 410 Добавлен: 2019-12-16 15:57:30
Верность (2019) WEBRip 1080p

Оригинальное название: Верность
Год выпуска: 2019
Жанр:  Драма
Режиссер: Нигина Сайфуллаева
В ролях: Александр Паль, Евгения Громова, Алексей Агранович, Марина Васильева (II), Анна Котова-Дерябина, Павел Ворожцов, Елизавета Лотова, Анастасия Денисова, Кирилл Каганович

О фильме:
Лена — талантливый акушер-гинеколог, её муж Сережа — артист провинциального драмтеатра. Близость и нежность у них есть, секса — нет. Лена подозревает, что Сережа завёл роман на стороне, но она мучается молча и не выдаёт свою ревность. Вместо того чтобы выяснить отношения с мужем, Лена сама начинает изменять ему со случайными мужчинами. Она, конечно, не думала, что её параллельная жизнь окажется не менее подлинной, чем основная. И не менее реальной. И настолько опасной.

Выпущено: Россия, PREMIER Studios, Droog Drooga Films при поддержке Министерства культуры РФ
Продолжительность: 01:18:24
Язык: Русский
Субтитры: Нет

Файл
Качество: WEBRip 1080p
Видео: AVC/H.264, 1920x1080, ~5000 Kbps
Аудио: AC3, 2 ch, 192 Kbps

Версия 18+ [сцены сексуального характера].


[+] M/I
General
Format                      : Matroska
Format version              : Version 4
File size                   : 2.80 GiB
Duration                    : 1 h 18 min
Overall bit rate mode       : Constant
Overall bit rate            : 5 119 kb/s
Movie name                  : Vernost.2019.WEB-DL.(1080p).Getty
Encoded date                : UTC 2019-12-15 23:08:53
Writing application         : mkvmerge v7.8.0 ('River Man') 32bit built on Mar 27 2015 16:18:02
Writing library             : libebml v1.3.1 + libmatroska v1.4.2

Video
ID                          : 1
Format                      : AVC
Format/Info                 : Advanced Video Codec
Format profile              : Baseline@L4
Format settings             : 4 Ref Frames
Format settings, CABAC      : No
Format settings, Reference  : 4 frames
Codec ID                    : V_MPEG4/ISO/AVC
Duration                    : 1 h 18 min
Bit rate mode               : Constant
Bit rate                    : 5 000 kb/s
Width                       : 1 920 pixels
Height                      : 1 080 pixels
Display aspect ratio        : 16:9
Frame rate mode             : Constant
Frame rate                  : 25.000 FPS
Standard                    : PAL
Color space                 : YUV
Chroma subsampling          : 4:2:0
Bit depth                   : 8 bits
Scan type                   : Progressive
Bits/(Pixel*Frame)          : 0.096
Stream size                 : 2.70 GiB (96%)
Default                     : Yes
Forced                      : No
Color range                 : Limited
Color primaries             : BT.709
Transfer characteristics    : BT.709
Matrix coefficients         : BT.709

Audio
ID                          : 2
Format                      : AC-3
Format/Info                 : Audio Coding 3
Commercial name             : Dolby Digital
Codec ID                    : A_AC3
Duration                    : 1 h 18 min
Bit rate mode               : Constant
Bit rate                    : 192 kb/s
Channel(s)                  : 2 channels
Channel layout              : L R
Sampling rate               : 48.0 kHz
Frame rate                  : 31.250 FPS (1536 SPF)
Compression mode            : Lossy
Stream size                 : 108 MiB (4%)
Service kind                : Complete Main
Default                     : Yes
Forced                      : No



Скриншоты:
[+] Всего файлов в раздаче - 1:
Vernost.2019.WEB-DL.(1080p).Getty.mkv2.80 GB

Показать еще раздачи по запросу верность:
2020-02-15 U Страсть и верность / Le Fidèle / Racer and the Jailbird (2017) BDRip от MegaPeer | iTunes 1.46 GB ↑ 51 ↓ 21
2020-02-15 U Страсть и верность / Le Fidèle / Racer and the Jailbird (2017) BDRip от MegaPeer | iTunes 2.18 GB ↑ 37 ↓ 11
2019-12-20 U Верность (2019) WEBRip от Scarabey 1.20 GB ↑ 95 ↓ 16
2019-12-17 U Верность (2019) WEBRip от GeneralFilm 745.22 MB ↑ 162 ↓ 59
2019-12-17 U Верность (2019) WEBRip 720p 2.02 GB ↑ 258 ↓ 76
2019-12-16 U Верность (2019) WEBRip 1.10 GB ↑ 323 ↓ 223
2018-01-30 U Страсть и верность / Le Fidèle (2017) WEB-DLRip от ExKinoRay | P 1.46 GB ↑ 739 ↓ 183

Отзывы
Зарегистрируйтесь чтобы добавить комментарий.
Обратная связь
Copyleft ©