↑↓torrent.by
Поиск
Логин: Регистрация
Пароль: Восстановить пароль

Zомбилэнд: Контрольный выстрел / Zombieland: Double Tap (2019) WEBRip 1080p | Sub

Скачать zombilend-kontrolnyy-vystrel-zombieland-double-tap-2019-webrip-1080p-sub.torrent
U Магнитная ссылка Размер: 5.20 GB Раздают: 71 Качают: 40 Добавлен: 2019-12-17 06:48:43
Zомбилэнд: Контрольный выстрел / Zombieland: Double Tap (2019) WEBRip 1080p | Sub

Название: Zомбилэнд: Контрольный выстрел
Оригинальное название: Zombieland: Double Tap
Год выхода: 2019
Жанр: ужасы, боевик, комедия

Режиссер: Рубен Фляйшер

В ролях: Джесси Айзенберг, Вуди Харрельсон, Эмма Стоун, Эбигейл Бреслин, Зои Дойч, Розарио Доусон, Эван Джогиа, Билл Мюррей, Дэн Эйкройд, Люк Уилсон

О фильме: Беспощадная и бесстрашная четверка охотников на зомби продолжает свое путешествие в глубь страны. На этот раз им предстоит сразиться не только с новыми видами живых мертвецов, но и вступить в схватку с другими выжившими, которые настроены совсем не дружелюбно. Кроме того, в собственных рядах охотников намечается серьезный разлад.

Страна: США, Канада
Продолжительность:  01:39:03
Перевод: Субтитры

Файл
Кодек: x.264
Качество: WEBRip 1080p
Видео: AVC, 1920x1080 (16:9), 29.970 fps, 7 325 kb/s
Аудио: AC3, 48.0 kHz, 2 ch, 192 kb/s | ENG
Субтитры: Корейские (вшитые), русские (полные), украинские (полные). английские (полные)

Рекламы нет | Семпл

Внимание ! Русские , украинские субтитры - машинный перевод !
При появлении лучшего - релиз будет перезалит ...



[+] MI
General
Unique ID                                : 251586661086702274358613328756857018811 (0xBD45D4134D5D5BCB956927C6461699BB)
Complete name                            : Zombieland.Double.Tap.2019.WEBRip.1080p.mkv
Format                                   : Matroska
Format version                           : Version 4
File size                                : 5.20 GiB
Duration                                 : 1 h 39 min
Overall bit rate                         : 7 521 kb/s
Encoded date                             : UTC 2019-12-16 15:50:21
Writing application                      : mkvmerge v8.3.0 ('Over the Horizon') 64bit
Writing library                          : libebml v1.3.1 + libmatroska v1.4.2

Video
ID                                       : 1
Format                                   : AVC
Format/Info                              : Advanced Video Codec
Format profile                           : Main@L4
Format settings                          : CABAC / 4 Ref Frames
Format settings, CABAC                   : Yes
Format settings, ReFrames                : 4 frames
Codec ID                                 : V_MPEG4/ISO/AVC
Duration                                 : 1 h 39 min
Bit rate                                 : 7 325 kb/s
Width                                    : 1 920 pixels
Height                                   : 1 080 pixels
Display aspect ratio                     : 16:9
Frame rate mode                          : Variable
Frame rate                               : 29.970 FPS
Color space                              : YUV
Chroma subsampling                       : 4:2:0
Bit depth                                : 8 bits
Scan type                                : Progressive
Bits/(Pixel*Frame)                       : 0.118
Stream size                              : 5.07 GiB (97%)
Language                                 : English
Default                                  : Yes
Forced                                   : No
Color range                              : Limited
Color primaries                          : BT.709
Transfer characteristics                 : BT.709
Matrix coefficients                      : BT.709

Audio
ID                                       : 2
Format                                   : AC-3
Format/Info                              : Audio Coding 3
Commercial name                          : Dolby Digital
Codec ID                                 : A_AC3
Duration                                 : 1 h 39 min
Bit rate mode                            : Constant
Bit rate                                 : 192 kb/s
Channel(s)                               : 2 channels
Channel layout                           : L R
Sampling rate                            : 48.0 kHz
Frame rate                               : 31.250 FPS (1536 SPF)
Bit depth                                : 16 bits
Compression mode                         : Lossy
Stream size                              : 136 MiB (3%)
Language                                 : English
Service kind                             : Complete Main
Default                                  : Yes
Forced                                   : No

Text #1
ID                                       : 3
Format                                   : UTF-8
Codec ID                                 : S_TEXT/UTF8
Codec ID/Info                            : UTF-8 Plain Text
Duration                                 : 1 h 38 min
Bit rate                                 : 144 b/s
Count of elements                        : 1805
Stream size                              : 104 KiB (0%)
Title                                    : Full
Language                                 : Russian
Default                                  : Yes
Forced                                   : Yes

Text #2
ID                                       : 4
Format                                   : UTF-8
Codec ID                                 : S_TEXT/UTF8
Codec ID/Info                            : UTF-8 Plain Text
Duration                                 : 1 h 38 min
Bit rate                                 : 215 b/s
Count of elements                        : 1805
Stream size                              : 155 KiB (0%)
Title                                    : Full (colored)
Language                                 : Russian
Default                                  : No
Forced                                   : No

Text #3
ID                                       : 5
Format                                   : UTF-8
Codec ID                                 : S_TEXT/UTF8
Codec ID/Info                            : UTF-8 Plain Text
Duration                                 : 1 h 38 min
Bit rate                                 : 140 b/s
Count of elements                        : 1806
Stream size                              : 101 KiB (0%)
Title                                    : Full
Language                                 : Ukrainian
Default                                  : No
Forced                                   : No

Text #4
ID                                       : 6
Format                                   : UTF-8
Codec ID                                 : S_TEXT/UTF8
Codec ID/Info                            : UTF-8 Plain Text
Duration                                 : 1 h 38 min
Bit rate                                 : 211 b/s
Count of elements                        : 1805
Stream size                              : 152 KiB (0%)
Title                                    : Full (colored)
Language                                 : Ukrainian
Default                                  : No
Forced                                   : No

Text #5
ID                                       : 7
Format                                   : UTF-8
Codec ID                                 : S_TEXT/UTF8
Codec ID/Info                            : UTF-8 Plain Text
Duration                                 : 1 h 38 min
Bit rate                                 : 83 b/s
Count of elements                        : 1805
Stream size                              : 60.2 KiB (0%)
Title                                    : Full
Language                                 : English
Default                                  : No
Forced                                   : No

Text #6
ID                                       : 8
Format                                   : UTF-8
Codec ID                                 : S_TEXT/UTF8
Codec ID/Info                            : UTF-8 Plain Text
Duration                                 : 1 h 38 min
Bit rate                                 : 154 b/s
Count of elements                        : 1805
Stream size                              : 111 KiB (0%)
Title                                    : Full (colored)
Language                                 : English
Default                                  : No
Forced                                   : No



Скриншоты:
[+] Всего файлов в раздаче - 1:
Zombieland.Double.Tap.2019.WEBRip.1080p.mkv5.20 GB

Показать еще раздачи по запросу zомбилэнд:
2020-01-01 U Zомбилэнд: Контрольный выстрел / Zombieland: Double Tap (2019) BDRip-HEVC 1080p от HEVC-CLUB | iTunes 1К8.11 GB ↑ 58 ↓ 24
2019-12-30 U Zомбилэнд: Контрольный выстрел / Zombieland: Double Tap (2019) BDRip от Twister & ExKinoRay | iTunes 1.42 GB ↑ 236 ↓ 40
2019-12-29 U Zомбилэнд: Контрольный выстрел / Zombieland: Double Tap (2019) BDRip-AVC от ExKinoRay | iTunes 2.79 GB ↑ 183 ↓ 20
2019-12-29 U Zомбилэнд: Контрольный выстрел / Zombieland: Double Tap (2019) HDRip от Portablius | iTunes 741.90 MB ↑ 46 ↓ 7
2019-12-28 U Zомбилэнд: Контрольный выстрел / Zombieland: Double Tap (2019) HDRip от Scarabey | iTunes 1.40 GB ↑ 759 ↓ 39
2019-12-28 U Zомбилэнд: Контрольный выстрел / Zombieland: Double Tap (2019) BDRip-AVC от ExKinoRay | iTunes 2.48 GB ↑ 85 ↓ 44
2019-12-27 U Zомбилэнд: Контрольный выстрел / Zombieland: Double Tap (2019) BDRemux 1080p от селезень | iTunes 22.58 GB ↑ 105 ↓ 154

Отзывы
Зарегистрируйтесь чтобы добавить комментарий.
Обратная связь
Copyleft ©