↑↓torrent.by
Поиск
Логин: Регистрация
Пароль: Восстановить пароль

Верность (2019) WEBRip от GeneralFilm

Скачать vernost-2019-webrip-ot-generalfilm.torrent
U Магнитная ссылка Размер: 745.22 MB Раздают: 162 Качают: 59 Добавлен: 2019-12-17 10:59:43
Верность (2019) WEBRip от GeneralFilm

Оригинальное название: Верность
Год выпуска: 2019
Жанр:  Драма
Выпущено: Россия, PREMIER Studios, Droog Drooga Films при поддержке Министерства культуры РФ
Режиссер: Нигина Сайфуллаева
В ролях: Александр Паль, Евгения Громова, Алексей Агранович, Марина Васильева (II), Анна Котова-Дерябина, Павел Ворожцов, Елизавета Лотова, Анастасия Денисова, Кирилл Каганович

О фильме: Лена — талантливый акушер-гинеколог, её муж Сережа — артист провинциального драмтеатра. Близость и нежность у них есть, секса — нет. Лена подозревает, что Сережа завёл роман на стороне, но она мучается молча и не выдаёт свою ревность. Вместо того чтобы выяснить отношения с мужем, Лена сама начинает изменять ему со случайными мужчинами. Она, конечно, не думала, что её параллельная жизнь окажется не менее подлинной, чем основная. И не менее реальной. И настолько опасной.

Версия 18+.

Файл
Качество: WEBRip
Видео: XviD build 73, 720x304 (2.37:1), 25.000 fps, 1191 Kbps (0.218 bit/pixel)
Аудио: 48.0 kHz, MP3, 2/0 ch, 128 kbps
Продолжительность: 01:18:24
Перевод: Не требуется [Русский]
Cубтитры: нет

Релиз:


[+] MediaInfo
General
Complete name               : D:RazdachiVernostj.2019.WEBRip.GeneralFilm.avi
Format                      : AVI
Format/Info                 : Audio Video Interleave
File size                   : 745 MiB
Duration                    : 1 h 18 min
Overall bit rate            : 1 329 kb/s
Writing application         : VirtualDubMod 1.5.10.3 | www.virtualdub-fr.org || (build 2550/release)
Writing library             : VirtualDubMod build 2550/release

Video
ID                          : 0
Format                      : MPEG-4 Visual
Format profile              : Advanced Simple@L5
Format settings             : BVOP1 / Custom Matrix
Format settings, BVOP       : 1
Format settings, QPel       : No
Format settings, GMC        : No warppoints
Format settings, Matrix     : Custom
Codec ID                    : XVID
Codec ID/Hint               : XviD
Duration                    : 1 h 18 min
Bit rate                    : 1 191 kb/s
Width                       : 720 pixels
Height                      : 304 pixels
Display aspect ratio        : 2.35:1
Frame rate                  : 25.000 FPS
Color space                 : YUV
Chroma subsampling          : 4:2:0
Bit depth                   : 8 bits
Scan type                   : Progressive
Compression mode            : Lossy
Bits/(Pixel*Frame)          : 0.218
Stream size                 : 668 MiB (90%)
Writing library             : XviD 73

Audio
ID                          : 1
Format                      : MPEG Audio
Format version              : Version 1
Format profile              : Layer 3
Codec ID                    : 55
Codec ID/Hint               : MP3
Duration                    : 1 h 18 min
Bit rate mode               : Constant
Bit rate                    : 128 kb/s
Channel(s)                  : 2 channels
Sampling rate               : 48.0 kHz
Frame rate                  : 41.667 FPS (1152 SPF)
Compression mode            : Lossy
Stream size                 : 71.8 MiB (10%)
Alignment                   : Aligned on interleaves
Interleave, duration        : 40  ms (1.00 video frame)
Interleave, preload duratio : 504  ms
Writing library             : LAME3.99r
Encoding settings           : -m s -V 4 -q 2 -lowpass 17 -b 128



Скриншоты:
[+] Всего файлов в раздаче - 1:
Vernostj.2019.WEBRip.GeneralFilm.avi745.22 MB

Показать еще раздачи по запросу верность:
2020-02-15 U Страсть и верность / Le Fidèle / Racer and the Jailbird (2017) BDRip от MegaPeer | iTunes 1.46 GB ↑ 51 ↓ 21
2020-02-15 U Страсть и верность / Le Fidèle / Racer and the Jailbird (2017) BDRip от MegaPeer | iTunes 2.18 GB ↑ 37 ↓ 11
2019-12-20 U Верность (2019) WEBRip от Scarabey 1.20 GB ↑ 95 ↓ 16
2019-12-17 U Верность (2019) WEBRip 720p 2.02 GB ↑ 259 ↓ 76
2019-12-16 U Верность (2019) WEBRip 1080p 2.80 GB ↑ 843 ↓ 410
2019-12-16 U Верность (2019) WEBRip 1.10 GB ↑ 323 ↓ 223
2018-01-30 U Страсть и верность / Le Fidèle (2017) WEB-DLRip от ExKinoRay | P 1.46 GB ↑ 739 ↓ 183

Отзывы
Зарегистрируйтесь чтобы добавить комментарий.
Обратная связь
Copyleft ©