↑↓torrent.by
Поиск
Логин: Регистрация
Пароль: Восстановить пароль

Джокер / Joker (2019) WEB-DL 720p от ExKinoRay | HDRezka Studio, BadBajo

Скачать dzhoker-joker-2019-web-dl-720p-ot-exkinoray-hdrezka-studio-badbajo.torrent
U Магнитная ссылка Размер: 4.88 GB Раздают: 49 Качают: 21 Добавлен: 2019-12-18 06:23:24
Джокер / Joker (2019) WEB-DL 720p от ExKinoRay | HDRezka Studio, BadBajo

Название: Джокер
Оригинальное название: Joker
Год выпуска: 2019
Жанр:  Триллер, драма, криминал
Режиссер: Тодд Филлипс
В ролях: Хоакин Феникс, Роберт Де Ниро, Зази Битц, Джоли Чань, Марк Мэрон, Фрэнсис Конрой, Мэри Кейт Малат, Ши Уигхэм, Брайан Коллен, Бретт Каллен

Описание:  
Готэм, начало 1980-х годов. Комик Артур Флек живет с больной матерью, которая с детства учит его «ходить с улыбкой». Пытаясь нести в мир хорошее и дарить людям радость, Артур сталкивается с человеческой жестокостью и постепенно приходит к выводу, что этот мир получит от него не добрую улыбку, а ухмылку злодея Джокера.

Выпущено: Канада, США, Warner Bros., Village Roadshow Pictures, DC Entertainment, DC Comics, 22 & Indiana Pictures
Продолжительность: 01:55:32
Перевод: Профессиональный многоголосый (HDRezka Studio)
Авторский (одноголосый, закадровый) | А.Важенин [BadBajo]

Формат: MKV
Качество: WEB-DL 720p
Видео: AVC/H.264, 1280x688, ~4153 Кbps, 23.976 fps
Звук:
Аудио 1: AC3, 2 ch, 192 Kbps - Русский (MVO HDRezka Studio)
Аудио 2: AC3, 2 ch, 448 Kbps - Русский (AVO BadBajo)
Аудио 3: AC3, 2 ch, 192 Kbps - Украинский (Postmodern)
Аудио 4: E-AC3, 6 ch, 640 Kbps - Английский
Субтитры: Русские (forced, 2xfull (iTunes, Enigma)), английские

Релиз:

Автор релиза:


[+] ОтчетМедиаИнфо

General
Unique ID                                : 245649580386332772761656030216190107666 (0xB8CE63659C90F4A7A15702270CB32012)
Complete name                            : F:Joker.2019.2xRus.720p.AMZN.WEB-DL.ExKinoRay.mkv
Format                                   : Matroska
Format version                           : Version 2
File size                                : 4.88 GiB
Duration                                 : 2 h 1 min
Overall bit rate                         : 5 739 kb/s
Movie name                               : Joker 2019 from ExKinoRay
Encoded date                             : UTC 2019-12-17 13:12:19
Writing application                      : mkvmerge v5.6.0 ('Kenya Kane') built on May 27 2012 16:44:04
Writing library                          : libebml v1.2.3 + libmatroska v1.3.0

Video
ID                                       : 1
Format                                   : AVC
Format/Info                              : Advanced Video Codec
Format profile                           : High@L3.1
Format settings, CABAC                   : Yes
Format settings, ReFrames                : 4 frames
Codec ID                                 : V_MPEG4/ISO/AVC
Duration                                 : 2 h 1 min
Bit rate mode                            : Constant
Bit rate                                 : 4 153 kb/s
Nominal bit rate                         : 6 000 kb/s
Width                                    : 1 280 pixels
Height                                   : 688 pixels
Display aspect ratio                     : 1.85:1
Frame rate mode                          : Constant
Frame rate                               : 23.976 (24000/1001) FPS
Color space                              : YUV
Chroma subsampling                       : 4:2:0
Bit depth                                : 8 bits
Scan type                                : Progressive
Bits/(Pixel*Frame)                       : 0.197
Stream size                              : 3.53 GiB (72%)
Default                                  : Yes
Forced                                   : No
Color range                              : Limited
Color primaries                          : BT.709
Transfer characteristics                 : BT.709
Matrix coefficients                      : BT.709

Audio #1
ID                                       : 2
Format                                   : AC-3
Format/Info                              : Audio Coding 3
Mode extension                           : CM (complete main)
Format settings, Endianness              : Big
Codec ID                                 : A_AC3
Duration                                 : 2 h 1 min
Bit rate mode                            : Constant
Bit rate                                 : 192 kb/s
Channel(s)                               : 2 channels
Channel positions                        : Front: L R
Sampling rate                            : 48.0 kHz
Frame rate                               : 31.250 FPS (1536 spf)
Compression mode                         : Lossy
Stream size                              : 167 MiB (3%)
Title                                    : MVO (HDrezka)
Language                                 : Russian
Default                                  : Yes
Forced                                   : No

Audio #2
ID                                       : 3
Format                                   : AC-3
Format/Info                              : Audio Coding 3
Mode extension                           : CM (complete main)
Format settings, Endianness              : Big
Codec ID                                 : A_AC3
Duration                                 : 2 h 1 min
Bit rate mode                            : Constant
Bit rate                                 : 448 kb/s
Channel(s)                               : 2 channels
Channel positions                        : Front: L R
Sampling rate                            : 48.0 kHz
Frame rate                               : 31.250 FPS (1536 spf)
Compression mode                         : Lossy
Delay relative to video                  : 22 ms
Stream size                              : 390 MiB (8%)
Title                                    : AVO (BadBajo)
Language                                 : Russian
Default                                  : No
Forced                                   : No

Audio #3
ID                                       : 4
Format                                   : AC-3
Format/Info                              : Audio Coding 3
Mode extension                           : CM (complete main)
Format settings, Endianness              : Big
Codec ID                                 : A_AC3
Duration                                 : 2 h 1 min
Bit rate mode                            : Constant
Bit rate                                 : 192 kb/s
Channel(s)                               : 2 channels
Channel positions                        : Front: L R
Sampling rate                            : 48.0 kHz
Frame rate                               : 31.250 FPS (1536 spf)
Compression mode                         : Lossy
Stream size                              : 167 MiB (3%)
Language                                 : Ukrainian
Default                                  : No
Forced                                   : No

Audio #4
ID                                       : 5
Format                                   : E-AC-3
Format/Info                              : Audio Coding 3
Format settings, Endianness              : Big
Codec ID                                 : A_EAC3
Duration                                 : 2 h 1 min
Bit rate mode                            : Constant
Bit rate                                 : 640 kb/s
Channel(s)                               : 6 channels
Channel positions                        : Front: L C R, Side: L R, LFE
Sampling rate                            : 48.0 kHz
Frame rate                               : 187.500 FPS (256 spf)
Compression mode                         : Lossy
Stream size                              : 558 MiB (11%)
Language                                 : English
Default                                  : No
Forced                                   : No

Text #1
ID                                       : 6
Format                                   : UTF-8
Codec ID                                 : S_TEXT/UTF8
Codec ID/Info                            : UTF-8 Plain Text
Title                                    : Forced
Language                                 : Russian
Default                                  : Yes
Forced                                   : No

Text #2
ID                                       : 7
Format                                   : UTF-8
Codec ID                                 : S_TEXT/UTF8
Codec ID/Info                            : UTF-8 Plain Text
Title                                    : Full (iTunes)
Language                                 : Russian
Default                                  : No
Forced                                   : No

Text #3
ID                                       : 8
Format                                   : UTF-8
Codec ID                                 : S_TEXT/UTF8
Codec ID/Info                            : UTF-8 Plain Text
Title                                    : Full (Enigma)
Language                                 : Russian
Default                                  : No
Forced                                   : No

Text #4
ID                                       : 9
Format                                   : UTF-8
Codec ID                                 : S_TEXT/UTF8
Codec ID/Info                            : UTF-8 Plain Text
Language                                 : English
Default                                  : No
Forced                                   : No

Text #5
ID                                       : 10
Format                                   : UTF-8
Codec ID                                 : S_TEXT/UTF8
Codec ID/Info                            : UTF-8 Plain Text
Title                                    : SDH
Language                                 : English
Default                                  : No
Forced                                   : No

Menu
00:00:00.000                             : en:Studio Logo
00:00:14.000                             : en:Makeup
00:01:31.000                             : en:Broken Sign
00:03:42.000                             : en:Therapy
00:07:41.000                             : en:Bus
00:09:14.000                             : en:Meeting Murray
00:15:20.000                             : en:Protection
00:19:12.000                             : en:Enter Sophie
00:21:00.000                             : en:Bath
00:23:33.000                             : en:Following
00:24:52.000                             : en:Comedy Scout
00:26:00.000                             : en:Invite
00:27:58.000                             : en:Hospital Gig
00:29:22.000                             : en:Subway Scuffle
00:34:09.000                             : en:Fleeing
00:36:13.000                             : en:First Kiss
00:36:45.000                             : en:Punching Out
00:38:13.000                             : en:Wayne Interview
00:39:55.000                             : en:Negative Thoughts
00:42:13.000                             : en:Open Mic
00:45:14.000                             : en:Date
00:46:20.000                             : en:Letter to Wayne
00:50:22.000                             : en:Clipping
00:51:11.000                             : en:Wayne Manor
00:55:15.000                             : en:Emergency
00:56:18.000                             : en:Detectives
00:58:31.000                             : en:Arthur on T.V.
01:01:00.000                             : en:Protest Coverage
01:02:17.000                             : en:Meeting Wayne
01:07:10.000                             : en:Invitation
01:09:35.000                             : en:Arkham
01:13:25.000                             : en:Penny's File
01:15:40.000                             : en:Sophie's Place
01:19:48.000                             : en:Life's a Comedy
01:22:11.000                             : en:Practice
01:24:27.000                             : en:Randall and Gary visit Arthur
01:30:14.000                             : en:Stairwell Waltz
01:34:50.000                             : en:Dressing Room
01:37:01.000                             : en:Arthur's Big Moment
01:46:34.000                             : en:Riot
01:49:04.000                             : en:Crime Alley
01:50:01.000                             : en:Joker's Fans
01:52:32.000                             : en:Thinking of a Joke
01:55:38.000                             : en:End Credits




Скриншоты:
[+] Всего файлов в раздаче - 1:
Joker.2019.2xRus.720p.AMZN.WEB-DL.ExKinoRay.mkv4.88 GB

Показать еще раздачи по запросу джокер:
2020-01-21 U Джокер / Joker (2019) BDRip 720p от k.e.n & MegaPeer | D, P, A | Лицензия 5.59 GB ↑ 3 ↓ 44
2020-01-13 U Джокер / Joker (2019) BDRip от HQ-ViDEO | D | Лицензия 2.18 GB ↑ 38 ↓ 24
2020-01-08 U Джокер / Joker (2019) BDRip-AVC | Лицензия 748.91 MB ↑ 38 ↓ 5
2019-12-31 U Джокер / Joker (2019) BDRip 720p | D, P, A 5.13 GB ↑ 34 ↓ 10
2019-12-29 U Джокер / Joker (2019) BDRip 720p от Scarabey | Лицензия 4.75 GB ↑ 186 ↓ 26
2019-12-28 U Джокер / Joker (2019) BDRip-AVC от Generalfilm | Лицензия 1.64 GB ↑ 249 ↓ 76
2019-12-28 U Джокер / Joker (2019) HDRip от Scarabey | Лицензия 1.44 GB ↑ 249 ↓ 16

Отзывы
Зарегистрируйтесь чтобы добавить комментарий.
Обратная связь
Copyleft ©