↑↓torrent.by
Поиск
Логин: Регистрация
Пароль: Восстановить пароль

Рэмбо: Последняя кровь / Rambo: Last Blood (2019) BDRip 1080p от селезень | Расширенная версия | iTunes

Скачать rembo-poslednyaya-krov-rambo-last-blood-2019-bdrip-1080p-ot-selezen-rasshirennaya-versiya-itunes.torrent
U Магнитная ссылка Размер: 7.16 GB Раздают: 107 Качают: 35 Добавлен: 2019-12-18 06:23:34
Рэмбо: Последняя кровь / Rambo: Last Blood (2019) BDRip 1080p от селезень | Расширенная версия | iTunes

Название: Рэмбо: Последняя кровь
Оригинальное название: Rambo: Last Blood
Год выхода: 2019
Жанр: Боевик, триллер, приключения
Режиссер: Адриан Грюнберг
В ролях: Сильвестр Сталлоне, Пас Вега, Ивет Монреаль, Луис Мэндилор, Оскар Хаенада, Шила Шах, Серхио Перис-Менчета, Джессика Мэдсен, Хоакин Косио, Адриана Барраса, Джени Ким, Паскасио Лопес, Александр Димитров

О фильме: Он хранил секреты всю жизнь, но пришло время взглянуть в глаза прошлому. В последний раз собраться и стать безжалостной машиной для убийства. Рэмбо снова встанет на смертельно опасный путь — путь мести, который ему придется пройти до конца.

Страна: США, Испания, Болгария
Студия: Balboa Productions, Campbell Grobman Films, Dadi Film Group
Продолжительность: 01:40:30
Перевод: Дублированный | iTunes

Качество: BDRip 1080p
Видео: MPEG-4 AVC, 1920x804, 9176 Kbit/s, 23.976 fps
Аудио #01: 48 kHz, AC3, 5.1, 384 Kbps | iTunes | RUS |
Аудио #02: 48 kHz, AC3, 5.1, 640 Kbps | Оригинал |  ENG |
Субтитры: Русские (Full [Enigma]), английские

Релиз:


[+] MI
General
Unique ID                   : 183121056085996897323133447499623118421 (0x89C3D5211ABC4001A4E128EFE8FF3655)
Complete name               : F:Video111Rambo.Last.Blood.2019.Extended.BDRip.1080p.seleZen.mkv
Format                      : Matroska
Format version              : Version 4
File size                   : 7.16 GiB
Duration                    : 1 h 40 min
Overall bit rate            : 10.2 Mb/s
Movie name                  : Rambo: Last Blood 2019 from селезень
Encoded date                : UTC 2019-12-17 12:55:51
Writing application         : mkvmerge v40.0.0 ('Old Town Road + Pony') 64-bit
Writing library             : libebml v1.3.9 + libmatroska v1.5.2

Video
ID                          : 1
Format                      : AVC
Format/Info                 : Advanced Video Codec
Format profile              : High@L4.1
Format settings             : CABAC / 5 Ref Frames
Format settings, CABAC      : Yes
Format settings, Reference  : 5 frames
Codec ID                    : V_MPEG4/ISO/AVC
Duration                    : 1 h 40 min
Bit rate                    : 9 176 kb/s
Width                       : 1 920 pixels
Height                      : 804 pixels
Display aspect ratio        : 2.40:1
Frame rate mode             : Constant
Frame rate                  : 23.976 (24000/1001) FPS
Color space                 : YUV
Chroma subsampling          : 4:2:0
Bit depth                   : 8 bits
Scan type                   : Progressive
Bits/(Pixel*Frame)          : 0.248
Stream size                 : 6.44 GiB (90%)
Title                       : Encoded by seleZen
Writing library             : x264 core 148 r2705kMod 3f5ed56
Encoding settings           : cabac=1 / ref=5 / deblock=1:-2:-2 / analyse=0x3:0x113 / me=umh / subme=11 / psy=1 / fade_compensate=0.00 / psy_rd=1.01:0.00 / mixed_ref=1 / me_range=32 / chroma_me=1 / trellis=2 / 8x8dct=1 / cqm=0 / deadzone=21,11 / fast_pskip=0 / chroma_qp_offset=-2 / threads=24 / lookahead_threads=6 / sliced_threads=0 / nr=0 / decimate=0 / interlaced=0 / bluray_compat=0 / constrained_intra=0 / fgo=0 / bframes=10 / b_pyramid=2 / b_adapt=2 / b_bias=0 / direct=3 / weightb=1 / open_gop=0 / weightp=2 / keyint=240 / keyint_min=23 / scenecut=40 / intra_refresh=0 / rc_lookahead=50 / rc=2pass / mbtree=0 / bitrate=9176 / ratetol=1.0 / qcomp=0.60 / qpmin=0 / qpmax=51 / qpstep=4 / cplxblur=20.0 / qblur=0.5 / vbv_maxrate=50000 / vbv_bufsize=62500 / nal_hrd=none / filler=0 / ip_ratio=1.40 / pb_ratio=1.30 / aq=3:0.80
Language                    : English
Default                     : Yes
Forced                      : No

Audio #1
ID                          : 2
Format                      : AC-3
Format/Info                 : Audio Coding 3
Commercial name             : Dolby Digital
Codec ID                    : A_AC3
Duration                    : 1 h 40 min
Bit rate mode               : Constant
Bit rate                    : 384 kb/s
Channel(s)                  : 6 channels
Channel layout              : L R C LFE Ls Rs
Sampling rate               : 48.0 kHz
Frame rate                  : 31.250 FPS (1536 SPF)
Bit depth                   : 16 bits
Compression mode            : Lossy
Stream size                 : 276 MiB (4%)
Title                       : iTunes
Language                    : Russian
Service kind                : Complete Main
Default                     : Yes
Forced                      : Yes

Audio #2
ID                          : 3
Format                      : AC-3
Format/Info                 : Audio Coding 3
Commercial name             : Dolby Digital
Codec ID                    : A_AC3
Duration                    : 1 h 40 min
Bit rate mode               : Constant
Bit rate                    : 640 kb/s
Channel(s)                  : 6 channels
Channel layout              : L R C LFE Ls Rs
Sampling rate               : 48.0 kHz
Frame rate                  : 31.250 FPS (1536 SPF)
Bit depth                   : 16 bits
Compression mode            : Lossy
Stream size                 : 460 MiB (6%)
Title                       : Original
Language                    : English
Service kind                : Complete Main
Default                     : No
Forced                      : No

Text #1
ID                          : 4
Format                      : UTF-8
Codec ID                    : S_TEXT/UTF8
Codec ID/Info               : UTF-8 Plain Text
Duration                    : 1 h 33 min
Bit rate                    : 58 b/s
Count of elements           : 809
Stream size                 : 40.0 KiB (0%)
Title                       : Full [Enigma]
Language                    : Russian
Default                     : No
Forced                      : No

Text #2
ID                          : 5
Format                      : UTF-8
Codec ID                    : S_TEXT/UTF8
Codec ID/Info               : UTF-8 Plain Text
Duration                    : 1 h 29 min
Bit rate                    : 27 b/s
Count of elements           : 629
Stream size                 : 17.9 KiB (0%)
Title                       : Full
Language                    : English
Default                     : No
Forced                      : No

Menu
00:00:00.000                : en:Глава 01
00:08:00.063                : en:Глава 02
00:18:19.265                : en:Глава 03
00:29:01.031                : en:Глава 04
00:38:06.242                : en:Глава 05
00:44:42.513                : en:Глава 06
00:51:34.800                : en:Глава 07
00:59:39.326                : en:Глава 08
01:07:53.152                : en:Глава 09
01:14:41.060                : en:Глава 10
01:21:38.852                : en:Глава 11
01:29:51.344                : en:Глава 12



Скриншоты:
[+] Всего файлов в раздаче - 1:
Rambo.Last.Blood.2019.Extended.BDRip.1080p.seleZen.mkv7.16 GB

Показать еще раздачи по запросу рэмбо:
2019-12-18 U Рэмбо: Последняя кровь / Rambo: Last Blood (2019) BDRip 720p от селезень | Расширенная версия | iTunes 3.52 GB ↑ 55 ↓ 18
2019-12-18 U Рэмбо: Последняя кровь / Rambo: Last Blood (2019) BDRemux 1080p от селезень | Расширенная версия | iTunes 15.15 GB ↑ 46 ↓ 24
2019-12-18 U Рэмбо: Последняя кровь / Rambo: Last Blood (2019) BDRip от MegaPeer | Расширенная версия | iTunes 1.42 GB ↑ 204 ↓ 40
2019-12-10 U Рэмбо: Последняя кровь / Rambo: Last Blood (2019) UHD BDRemux 2160p от селезень | 4K | HDR | Dolby Vision TV | Театральная версия | iTunes 35.57 GB ↑ 46 ↓ 24
2019-12-09 U Рэмбо: Последняя кровь / Rambo: Last Blood (2019) HDRip-AVC от ExKinoRay | iTunes | Расширенная версия / Extended Cut 1.40 GB ↑ 177 ↓ 50
2019-12-08 U Рэмбо: Последняя кровь / Rambo: Last Blood (2019) BDRip 1080p от селезень | iTunes 8.97 GB ↑ 211 ↓ 126
2019-12-05 U Рэмбо: Последняя кровь / Rambo: Last Blood (2019) HDRip от Scarabey | iTunes 1.40 GB ↑ 190 ↓ 41

Отзывы
Зарегистрируйтесь чтобы добавить комментарий.
Обратная связь
Copyleft ©