↑↓torrent.by
Поиск
Логин: Регистрация
Пароль: Восстановить пароль

Джокер / Joker (2019) BDRip 1080p от селезень | D, P

Скачать dzhoker-joker-2019-bdrip-1080p-ot-selezen-d-p.torrent
U Магнитная ссылка Размер: 10.08 GB Раздают: 591 Качают: 508 Добавлен: 2019-12-19 18:46:18
Джокер / Joker (2019) BDRip 1080p от селезень | D, P

Название: Джокер
Оригинальное название: Joker
Год выхода: 2019
Жанр: Триллер, драма, криминал
Режиссер: Тодд Филлипс
В ролях: Хоакин Феникс, Роберт Де Ниро, Зази Битц, Джоли Чань, Марк Мэрон, Фрэнсис Конрой, Мэри Кейт Малат, Ши Уигхэм, Брайан Коллен, Бретт Каллен, Билл Кэмп, Гленн Флешлер, Ли Гилл, Джош Пэйс

О фильме: Готэм, начало 1980-х годов. Комик Артур Флек живет с больной матерью, которая с детства учит его «ходить с улыбкой». Пытаясь нести в мир хорошее и дарить людям радость, Артур сталкивается с человеческой жестокостью и постепенно приходит к выводу, что этот мир получит от него не добрую улыбку, а ухмылку злодея Джокера.

Страна: Канада, США
Студия: Warner Bros., Village Roadshow Pictures, DC Entertainment, DC Comics, 22 & Indiana Pictures
Продолжительность: 02:01:49
Перевод(ы):
#1: Дублированный | Онлайн кинотеатр
#2: Профессиональный многоголосый | HDRezka Studio

Качество: BDRip 1080p
Видео: MPEG-4 AVC, 1920x1038, 10.6 Mbit/s, 23.976 fps
Аудио #01: 48 kHz, AC3, 2.0, 192 Kbps | Дублированный | RUS |
Аудио #02: 48 kHz, AC3, 2.0, 192 Kbps | HDRezka Studio | RUS |
Аудио #03: 48 kHz, AC3, 2.0, 192 Kbps | Postmodern | UKR |
Аудио #04: 48 kHz, AC3, 5.1, 640 Kbps | Оригинал |  ENG |
Субтитры: Русские ((Forced, full [Enigma]), full [iTunes]), английские

Семпл


Без рекламы.

Релиз:


[+] MI
General
Unique ID                   : 100921560743824493062635057373655696391 (0x4BECC91C3C2C55E1AB5AFA2AE5158407)
Complete name               : F:Video111Joker.2019.BDRip.1080p.seleZen.mkv
Format                      : Matroska
Format version              : Version 4
File size                   : 10.1 GiB
Duration                    : 2 h 1 min
Overall bit rate            : 11.8 Mb/s
Encoded date                : UTC 2019-12-19 10:35:48
Writing application         : mkvmerge v40.0.0 ('Old Town Road + Pony') 64-bit
Writing library             : libebml v1.3.9 + libmatroska v1.5.2

Video
ID                          : 1
Format                      : AVC
Format/Info                 : Advanced Video Codec
Format profile              : High@L4.1
Format settings             : CABAC / 4 Ref Frames
Format settings, CABAC      : Yes
Format settings, Reference  : 4 frames
Codec ID                    : V_MPEG4/ISO/AVC
Duration                    : 2 h 1 min
Bit rate                    : 10.6 Mb/s
Width                       : 1 920 pixels
Height                      : 1 038 pixels
Display aspect ratio        : 1.85:1
Frame rate mode             : Constant
Frame rate                  : 23.976 (24000/1001) FPS
Color space                 : YUV
Chroma subsampling          : 4:2:0
Bit depth                   : 8 bits
Scan type                   : Progressive
Bits/(Pixel*Frame)          : 0.222
Stream size                 : 9.04 GiB (90%)
Title                       : CHD
Writing library             : x264 core 157 r2867+150 7e91e0e t_mod_Custom_2 [8-bit@all X86_64]
Encoding settings           : cabac=1 / ref=4 / deblock=1:-3:-3 / analyse=0x3:0x133 / me=umh / subme=11 / psy=1 / fade_compensate=0.00 / psy_rd=0.90:0.10 / mixed_ref=1 / me_range=64 / chroma_me=1 / trellis=2 / 8x8dct=1 / cqm=0 / deadzone=21,11 / fast_pskip=0 / chroma_qp_offset=-4 / threads=32 / lookahead_threads=5 / sliced_threads=0 / nr=0 / decimate=1 / interlaced=0 / bluray_compat=0 / constrained_intra=0 / fgo=0 / bframes=8 / b_pyramid=2 / b_adapt=2 / b_bias=0 / direct=3 / weightb=1 / open_gop=0 / weightp=2 / keyint=250 / keyint_min=23 / scenecut=40 / intra_refresh=0 / rc_lookahead=60 / rc=crf / mbtree=0 / crf=18.0000 / qcomp=0.70 / qpmin=0:0:0 / qpmax=69:69:69 / qpstep=4 / vbv_maxrate=35000 / vbv_bufsize=35000 / crf_max=0.0 / nal_hrd=none / filler=0 / ip_ratio=1.40 / pb_ratio=1.30 / aq=3:1.00 / aq-sensitivity=10.00 / aq-factor=1.00:1.00:1.00 / aq2=0 / aq3=0
Language                    : English
Default                     : Yes
Forced                      : No

Audio #1
ID                          : 2
Format                      : AC-3
Format/Info                 : Audio Coding 3
Commercial name             : Dolby Digital
Codec ID                    : A_AC3
Duration                    : 2 h 1 min
Bit rate mode               : Constant
Bit rate                    : 192 kb/s
Channel(s)                  : 2 channels
Channel layout              : L R
Sampling rate               : 48.0 kHz
Frame rate                  : 31.250 FPS (1536 SPF)
Bit depth                   : 16 bits
Compression mode            : Lossy
Stream size                 : 167 MiB (2%)
Title                       : Dub [Online Cin.]
Language                    : Russian
Service kind                : Complete Main
Default                     : Yes
Forced                      : Yes

Audio #2
ID                          : 3
Format                      : AC-3
Format/Info                 : Audio Coding 3
Commercial name             : Dolby Digital
Codec ID                    : A_AC3
Duration                    : 2 h 1 min
Bit rate mode               : Constant
Bit rate                    : 192 kb/s
Channel(s)                  : 2 channels
Channel layout              : L R
Sampling rate               : 48.0 kHz
Frame rate                  : 31.250 FPS (1536 SPF)
Bit depth                   : 16 bits
Compression mode            : Lossy
Stream size                 : 167 MiB (2%)
Title                       : MVO [HDRezka Studio]
Language                    : Russian
Service kind                : Complete Main
Default                     : No
Forced                      : No

Audio #3
ID                          : 4
Format                      : AC-3
Format/Info                 : Audio Coding 3
Commercial name             : Dolby Digital
Codec ID                    : A_AC3
Duration                    : 2 h 1 min
Bit rate mode               : Constant
Bit rate                    : 192 kb/s
Channel(s)                  : 2 channels
Channel layout              : L R
Sampling rate               : 48.0 kHz
Frame rate                  : 31.250 FPS (1536 SPF)
Bit depth                   : 16 bits
Compression mode            : Lossy
Stream size                 : 167 MiB (2%)
Title                       : Dub [Postmodern Line]
Language                    : Ukrainian
Service kind                : Complete Main
Default                     : No
Forced                      : No

Audio #4
ID                          : 5
Format                      : AC-3
Format/Info                 : Audio Coding 3
Commercial name             : Dolby Digital
Codec ID                    : A_AC3
Duration                    : 2 h 1 min
Bit rate mode               : Constant
Bit rate                    : 640 kb/s
Channel(s)                  : 6 channels
Channel layout              : L R C LFE Ls Rs
Sampling rate               : 48.0 kHz
Frame rate                  : 31.250 FPS (1536 SPF)
Bit depth                   : 16 bits
Compression mode            : Lossy
Stream size                 : 558 MiB (5%)
Title                       : Original
Language                    : English
Service kind                : Complete Main
Default                     : No
Forced                      : No

Text #1
ID                          : 6
Format                      : UTF-8
Codec ID                    : S_TEXT/UTF8
Codec ID/Info               : UTF-8 Plain Text
Duration                    : 1 h 54 min
Bit rate                    : 8 b/s
Count of elements           : 101
Stream size                 : 7.51 KiB (0%)
Title                       : Forced [Enigma]
Language                    : Russian
Default                     : Yes
Forced                      : Yes

Text #2
ID                          : 7
Format                      : UTF-8
Codec ID                    : S_TEXT/UTF8
Codec ID/Info               : UTF-8 Plain Text
Duration                    : 1 h 55 min
Bit rate                    : 79 b/s
Count of elements           : 1221
Stream size                 : 67.5 KiB (0%)
Title                       : Full [Enigma]
Language                    : Russian
Default                     : No
Forced                      : No

Text #3
ID                          : 8
Format                      : UTF-8
Codec ID                    : S_TEXT/UTF8
Codec ID/Info               : UTF-8 Plain Text
Duration                    : 1 h 57 min
Bit rate                    : 75 b/s
Count of elements           : 1108
Stream size                 : 64.8 KiB (0%)
Title                       : Full [iTunes]
Language                    : English
Default                     : No
Forced                      : No

Text #4
ID                          : 9
Format                      : UTF-8
Codec ID                    : S_TEXT/UTF8
Codec ID/Info               : UTF-8 Plain Text
Duration                    : 1 h 54 min
Bit rate                    : 44 b/s
Count of elements           : 1326
Stream size                 : 36.9 KiB (0%)
Title                       : Full
Language                    : English
Default                     : No
Forced                      : No

Text #5
ID                          : 10
Format                      : UTF-8
Codec ID                    : S_TEXT/UTF8
Codec ID/Info               : UTF-8 Plain Text
Duration                    : 1 h 58 min
Bit rate                    : 55 b/s
Count of elements           : 1735
Stream size                 : 47.9 KiB (0%)
Title                       : SDH
Language                    : English
Default                     : No
Forced                      : No

Menu
00:00:01.700                : en:Studio Logo
00:00:15.700                : en:Makeup
00:01:32.700                : en:Broken Sign
00:03:43.700                : en:Therapy
00:07:42.700                : en:Bus
00:09:15.700                : en:Meeting Murray
00:15:21.700                : en:Protection
00:19:13.700                : en:Enter Sophie
00:21:01.700                : en:Bath
00:23:34.700                : en:Following
00:24:53.700                : en:Comedy Scout
00:26:01.700                : en:Invite
00:27:59.700                : en:Hospital Gig
00:29:23.700                : en:Subway Scuffle
00:34:10.700                : en:Fleeing
00:36:14.700                : en:First Kiss
00:36:46.700                : en:Punching Out
00:38:14.700                : en:Wayne Interview
00:39:56.700                : en:Negative Thoughts
00:42:14.700                : en:Open Mic
00:45:15.700                : en:Date
00:46:21.700                : en:Letter to Wayne
00:50:23.700                : en:Clipping
00:51:12.700                : en:Wayne Manor
00:55:16.700                : en:Emergency
00:56:19.700                : en:Detectives
00:58:32.700                : en:Arthur on T.V.
01:01:01.700                : en:Protest Coverage
01:02:18.700                : en:Meeting Wayne
01:07:11.700                : en:Invitation
01:09:36.700                : en:Arkham
01:13:26.700                : en:Penny's File
01:15:41.700                : en:Sophie's Place
01:19:49.700                : en:Life's a Comedy
01:22:12.700                : en:Practice
01:24:28.700                : en:Randall and Gary visit Arthur
01:30:15.700                : en:Stairwell Waltz
01:34:51.700                : en:Dressing Room
01:37:02.700                : en:Arthur's Big Moment
01:46:35.700                : en:Riot
01:49:05.700                : en:Crime Alley
01:50:02.700                : en:Joker's Fans
01:52:33.700                : en:Thinking of a Joke
01:55:39.700                : en:End Credits



Скриншоты:
[+] Всего файлов в раздаче - 1:
Joker.2019.BDRip.1080p.seleZen.mkv10.08 GB

Показать еще раздачи по запросу джокер:
2019-12-29 U Джокер / Joker (2019) BDRip 720p от Scarabey | Лицензия 4.75 GB ↑ 282 ↓ 32
2019-12-28 U Джокер / Joker (2019) BDRip-AVC от Generalfilm | Лицензия 1.64 GB ↑ 450 ↓ 82
2019-12-23 U Джокер / Joker (2019) HDRip от Scarabey | D 1.44 GB ↑ 216 ↓ 13
2019-12-22 U Джокер / Joker (2019) BDRip 1080p | D, P, A, L 10.73 GB ↑ 98 ↓ 33
2019-12-20 U Джокер / Joker (2019) HDRip от MegaPeer | D, P 1.46 GB ↑ 249 ↓ 42
2019-12-19 U Джокер / Joker (2019) WEB-DL 1080p от Scarabey | D, P 4.70 GB ↑ 1035 ↓ 512
2019-11-20 U Джокер / Joker (2019) WEBRip 1080p | P, A, L 11.74 GB ↑ 525 ↓ 318

Отзывы
Зарегистрируйтесь чтобы добавить комментарий.
Загрузите программу
  uTorrent.exe
Обратная связь
Copyleft ©