↑↓torrent.by
Поиск
Логин: Регистрация
Пароль: Восстановить пароль

Zомбилэнд: Контрольный выстрел / Zombieland: Double Tap (2019) BDRip 1080p | D

Скачать zombilend-kontrolnyy-vystrel-zombieland-double-tap-2019-bdrip-1080p-d.torrent
U Магнитная ссылка Размер: 7.79 GB Раздают: 2578 Качают: 1993 Добавлен: 2019-12-23 18:15:01
Zомбилэнд: Контрольный выстрел / Zombieland: Double Tap (2019) BDRip 1080p | D

Название: Zомбилэнд: Контрольный выстрел
Оригинальное название: Zombieland: Double Tap
Год выхода: 2019
Жанр: ужасы, комедия, боевик
Режиссер: Рубен Фляйшер
В ролях: Джесси Айзенберг, Вуди Харрельсон, Эмма Стоун, Эбигейл Бреслин, Зои Дойч, Розарио Доусон, Эван Джогиа, Билл Мюррей, Дэн Эйкройд, Люк Уилсон, Томас Миддлдитч, Виктория Холл

О фильме:
Беспощадная и бесстрашная четверка охотников на зомби продолжает свое путешествие в глубь страны. На этот раз им предстоит сразиться не только с новыми видами живых мертвецов, но и познакомиться с другими выжившими. Кроме того, в собственных рядах наших героев намечается серьезный разлад.

Страна: США, Канада
Студия: Columbia Pictures Corporation, Pariah
Продолжительность: 01:39:01
Перевод: Дублированный

Файл
Кодек: h.264
Качество: BDRip 1080p
Видео: MPEG-4 AVC, 9552 Кбит/с, 1920x800, 23,976 кадр/с
Звук:
Русский: 48 kHz, AC3 Dolby Digital, 2/0 (L,R) ch, ~192 kbps / Дублированный, Онлайн кинотеатр
Английский: 48 kHz / 24 bits, DTS, 3/2 (L,C,R,l,r) + LFE ch, ~1510 kbps avg
Субтитры: Английские (Forced, Full)


[+] MI
General
Unique ID                                : 334107007538903690987506555688324728989 (0xFB5AAB46867163F5074DDB579658889D)
Complete name                            : C:KINOZombieland_Double.Tap.2019.1080p.BDRip.mkv
Format                                   : Matroska
Format version                           : Version 4
File size                                : 7.79 GiB
Duration                                 : 1 h 39 min
Overall bit rate                         : 11.3 Mb/s
Encoded date                             : UTC 2019-12-23 08:06:50
Writing application                      : mkvmerge v38.0.0 ('The Silent Type') 64-bit
Writing library                          : libebml v1.3.9 + libmatroska v1.5.2
Cover                                    : Yes
Attachments                              : cover.jpg

Video
ID                                       : 1
Format                                   : AVC
Format/Info                              : Advanced Video Codec
Format profile                           : High@L4.1
Format settings                          : CABAC / 5 Ref Frames
Format settings, CABAC                   : Yes
Format settings, Reference frames        : 5 frames
Codec ID                                 : V_MPEG4/ISO/AVC
Duration                                 : 1 h 39 min
Bit rate                                 : 9 552 kb/s
Width                                    : 1 920 pixels
Height                                   : 800 pixels
Display aspect ratio                     : 2.40:1
Frame rate mode                          : Constant
Frame rate                               : 23.976 (24000/1001) FPS
Color space                              : YUV
Chroma subsampling                       : 4:2:0
Bit depth                                : 8 bits
Scan type                                : Progressive
Bits/(Pixel*Frame)                       : 0.259
Stream size                              : 6.61 GiB (85%)
Title                                    : BDRip.1080p by Silverok
Writing library                          : x264 core 158 r2988 7817004
Encoding settings                        : cabac=1 / ref=5 / deblock=1:-3:-3 / analyse=0x3:0x113 / me=umh / subme=8 / psy=1 / psy_rd=1.00:0.00 / mixed_ref=1 / me_range=16 / chroma_me=1 / trellis=1 / 8x8dct=1 / cqm=0 / deadzone=21,11 / fast_pskip=1 / chroma_qp_offset=-2 / threads=25 / lookahead_threads=4 / sliced_threads=0 / nr=0 / decimate=1 / interlaced=0 / bluray_compat=0 / constrained_intra=0 / bframes=3 / b_pyramid=2 / b_adapt=1 / b_bias=0 / direct=3 / weightb=1 / open_gop=0 / weightp=2 / keyint=250 / keyint_min=23 / scenecut=40 / intra_refresh=0 / rc_lookahead=50 / rc=2pass / mbtree=1 / bitrate=9552 / ratetol=1.0 / qcomp=0.60 / qpmin=0 / qpmax=69 / qpstep=4 / cplxblur=20.0 / qblur=0.5 / ip_ratio=1.40 / aq=1:1.00
Default                                  : Yes
Forced                                   : No

Audio #1
ID                                       : 2
Format                                   : AC-3
Format/Info                              : Audio Coding 3
Commercial name                          : Dolby Digital
Codec ID                                 : A_AC3
Duration                                 : 1 h 39 min
Bit rate mode                            : Constant
Bit rate                                 : 192 kb/s
Channel(s)                               : 2 channels
Channel layout                           : L R
Sampling rate                            : 48.0 kHz
Frame rate                               : 31.250 FPS (1536 SPF)
Compression mode                         : Lossy
Stream size                              : 136 MiB (2%)
Title                                    : Профессиональный (дублированный) |Звук с онлайн-кинотеатра|
Language                                 : Russian
Service kind                             : Complete Main
Default                                  : Yes
Forced                                   : No

Audio #2
ID                                       : 3
Format                                   : DTS
Format/Info                              : Digital Theater Systems
Codec ID                                 : A_DTS
Duration                                 : 1 h 39 min
Bit rate mode                            : Constant
Bit rate                                 : 1 509 kb/s
Channel(s)                               : 6 channels
Channel layout                           : C L R Ls Rs LFE
Sampling rate                            : 48.0 kHz
Frame rate                               : 93.750 FPS (512 SPF)
Bit depth                                : 24 bits
Compression mode                         : Lossy
Stream size                              : 1.04 GiB (13%)
Language                                 : English
Default                                  : No
Forced                                   : No

Text #1
ID                                       : 4
Format                                   : UTF-8
Codec ID                                 : S_TEXT/UTF8
Codec ID/Info                            : UTF-8 Plain Text
Duration                                 : 28 min 6 s
Bit rate                                 : 0 b/s
Count of elements                        : 7
Stream size                              : 157 Bytes (0%)
Title                                    : Forced
Language                                 : English
Default                                  : No
Forced                                   : No

Text #2
ID                                       : 5
Format                                   : UTF-8
Codec ID                                 : S_TEXT/UTF8
Codec ID/Info                            : UTF-8 Plain Text
Duration                                 : 1 h 38 min
Bit rate                                 : 83 b/s
Count of elements                        : 1805
Stream size                              : 60.2 KiB (0%)
Title                                    : Full
Language                                 : English
Default                                  : No
Forced                                   : No

Menu
00:00:00.000                             : en:00:00:00.000
00:05:00.675                             : en:00:05:00.675
00:11:08.001                             : en:00:11:08.001
00:15:24.507                             : en:00:15:24.507
00:21:16.192                             : en:00:21:16.192
00:29:15.545                             : en:00:29:15.545
00:36:55.422                             : en:00:36:55.422
00:44:03.015                             : en:00:44:03.015
00:50:12.968                             : en:00:50:12.968
00:57:52.511                             : en:00:57:52.511
01:03:51.870                             : en:01:03:51.870
01:06:50.048                             : en:01:06:50.048
01:10:12.125                             : en:01:10:12.125
01:15:40.119                             : en:01:15:40.119
01:23:45.312                             : en:01:23:45.312
01:29:48.216                             : en:01:29:48.216



Скриншоты:
[+] Всего файлов в раздаче - 1:
Zombieland_Double.Tap.2019.1080p.BDRip.mkv7.79 GB

Показать еще раздачи по запросу zомбилэнд:
2020-03-22 U Zомбилэнд: Контрольный выстрел / Zombieland: Double Tap (2019) HDRip от Scarabey | Лицензия 1.44 GB ↑ 65 ↓ 15
2020-03-21 U Zомбилэнд: Контрольный выстрел / Zombieland: Double Tap (2019) BDRip-HEVC 1080p от HEVC-CLUB | Лицензия 8.75 GB ↑ 65 ↓ 36
2020-03-21 U Zомбилэнд: Контрольный выстрел / Zombieland: Double Tap (2019) BDRip-AVC | Лицензия 1.46 GB ↑ 44 ↓ 23
2020-03-21 U Zомбилэнд: Контрольный выстрел / Zombieland: Double Tap (2019) BDRip 720p от селезень | Лицензия 5.24 GB ↑ 47 ↓ 25
2020-03-21 U Zомбилэнд: Контрольный выстрел / Zombieland: Double Tap (2019) BDRip 1080p от селезень | Лицензия 10.11 GB ↑ 50 ↓ 42
2020-03-21 U Zомбилэнд: Контрольный выстрел / Zombieland: Double Tap (2019) BDRip от MegaPeer | Лицензия 1.46 GB ↑ 49 ↓ 9
2020-01-01 U Zомбилэнд: Контрольный выстрел / Zombieland: Double Tap (2019) BDRip-HEVC 1080p от HEVC-CLUB | iTunes 1К8.11 GB ↑ 64 ↓ 23

Отзывы
Зарегистрируйтесь чтобы добавить комментарий.
Обратная связь
Copyleft ©