↑↓torrent.by
Поиск
Логин: Регистрация
Пароль: Восстановить пароль

Три секунды / The Informer (2019) WEB-DL 1080p от селезень | D

Скачать tri-sekundy-the-informer-2019-web-dl-1080p-ot-selezen-d.torrent
U Магнитная ссылка Размер: 8.03 GB Раздают: 1347 Качают: 1384 Добавлен: 2019-12-23 18:15:08
Три секунды / The Informer (2019) WEB-DL 1080p от селезень | D

Название: Три секунды
Оригинальное название: The Informer
Год выхода: 2019
Жанр: Триллер, криминал, боевик
Режиссер: Андреа Ди Стефано
В ролях: Ана де Армас, Розамунд Пайк, Юэль Киннаман, Клайв Оуэн, Коммон, Рут Брэдли, Сэм Спруэлл, Мартин МакКанн, Артуро Кастро, Насир Джама, Дженна Уиллис

О фильме: Три секунды — время полета пули, выпущенной из снайперской винтовки с расстояния 1 500 метров. Именно столько времени остается, чтобы принять решение информатору Федерального Бюро Расследований, оказавшемуся в смертельной ловушке между мафией, полицией и ФБР. На кону — его семья, свобода, жизнь.

Страна: Великобритания
Студия: hefyzz, Thunder Road Pictures, Imagination Park Entertainment
Продолжительность: 01:53:25
Перевод: Дублированный | Онлайн кинотеатр

Качество: WEB-DL 1080p
Видео: MPEG-4 AVC, 1920x800, 9301 Kbit/s, 23.976 fps
Аудио #01: 48 kHz, AC3, 2.0, 192 Kbps | Дублированный | RUS |
Аудио #02: 48 kHz, E-AC3, 5.1, 640 Kbps | Оригинал |  ENG |
Субтитры: Английские

Без рекламы

Семпл

Релиз:


[+] MI
General
Unique ID                   : 49225907487006098672464361932321982454 (0x2508909F0C64603B8BB40048150407F6)
Complete name               : F:Video111The.Informer.2019.AMZN.WEB-DL.1080p.seleZen.mkv
Format                      : Matroska
Format version              : Version 4
File size                   : 8.03 GiB
Duration                    : 1 h 53 min
Overall bit rate            : 10.1 Mb/s
Movie name                  : The Informer 2019 from селезень
Encoded date                : UTC 2019-12-23 12:06:33
Writing application         : mkvmerge v40.0.0 ('Old Town Road + Pony') 64-bit
Writing library             : libebml v1.3.9 + libmatroska v1.5.2

Video
ID                          : 1
Format                      : AVC
Format/Info                 : Advanced Video Codec
Format profile              : High@L4
Format settings             : CABAC / 4 Ref Frames
Format settings, CABAC      : Yes
Format settings, Reference  : 4 frames
Codec ID                    : V_MPEG4/ISO/AVC
Duration                    : 1 h 53 min
Bit rate mode               : Constant
Bit rate                    : 9 301 kb/s
Nominal bit rate            : 10 000 kb/s
Width                       : 1 920 pixels
Height                      : 800 pixels
Display aspect ratio        : 2.40:1
Frame rate mode             : Constant
Frame rate                  : 23.976 (24000/1001) FPS
Color space                 : YUV
Chroma subsampling          : 4:2:0
Bit depth                   : 8 bits
Scan type                   : Progressive
Bits/(Pixel*Frame)          : 0.253
Stream size                 : 7.37 GiB (92%)
Language                    : English
Default                     : Yes
Forced                      : No
Color range                 : Limited
Color primaries             : BT.709
Transfer characteristics    : BT.709
Matrix coefficients         : BT.709

Audio #1
ID                          : 2
Format                      : AC-3
Format/Info                 : Audio Coding 3
Commercial name             : Dolby Digital
Codec ID                    : A_AC3
Duration                    : 1 h 53 min
Bit rate mode               : Constant
Bit rate                    : 192 kb/s
Channel(s)                  : 2 channels
Channel layout              : L R
Sampling rate               : 48.0 kHz
Frame rate                  : 31.250 FPS (1536 SPF)
Bit depth                   : 16 bits
Compression mode            : Lossy
Stream size                 : 156 MiB (2%)
Title                       : Dub [Online cin.]
Language                    : Russian
Service kind                : Complete Main
Default                     : Yes
Forced                      : Yes

Audio #2
ID                          : 3
Format                      : E-AC-3
Format/Info                 : Enhanced AC-3
Commercial name             : Dolby Digital Plus
Codec ID                    : A_EAC3
Duration                    : 1 h 53 min
Bit rate mode               : Constant
Bit rate                    : 640 kb/s
Channel(s)                  : 6 channels
Channel layout              : L R C LFE Ls Rs
Sampling rate               : 48.0 kHz
Frame rate                  : 31.250 FPS (1536 SPF)
Compression mode            : Lossy
Stream size                 : 519 MiB (6%)
Title                       : Original
Language                    : English
Service kind                : Complete Main
Default                     : No
Forced                      : No

Text #1
ID                          : 4
Format                      : UTF-8
Codec ID                    : S_TEXT/UTF8
Codec ID/Info               : UTF-8 Plain Text
Duration                    : 1 h 43 min
Bit rate                    : 47 b/s
Count of elements           : 1156
Stream size                 : 36.3 KiB (0%)
Title                       : Full
Language                    : English
Default                     : No
Forced                      : No

Text #2
ID                          : 5
Format                      : UTF-8
Codec ID                    : S_TEXT/UTF8
Codec ID/Info               : UTF-8 Plain Text
Duration                    : 1 h 52 min
Bit rate                    : 52 b/s
Count of elements           : 1521
Stream size                 : 43.4 KiB (0%)
Title                       : SDH
Language                    : English
Default                     : No
Forced                      : No



Скриншоты:
[+] Всего файлов в раздаче - 1:
The.Informer.2019.AMZN.WEB-DL.1080p.seleZen.mkv8.03 GB

Похожие раздачи по запросу - секунды:
2020-09-29 U Три секунды / The Informer (2019) BDRip от MegaPeer | GER Transfer | A 2.18 GB ↑ 43 ↓ 9
2019-12-23 U Три секунды / The Informer (2019) WEB-DLRip от MegaPeer | D 1.46 GB ↑ 2589 ↓ 1035

Отзывы
Зарегистрируйтесь чтобы добавить комментарий.
Загрузите программу
  uTorrent.exe
Обратная связь
Copyleft ©