↑↓torrent.by
Поиск
Логин: Регистрация
Пароль: Восстановить пароль

Первобытный / Primal (2019) BDRip 1080p | L

Скачать pervobytnyy-primal-2019-bdrip-1080p-l.torrent
U Магнитная ссылка Размер: 6.68 GB Раздают: 135 Качают: 144 Добавлен: 2019-12-23 18:15:47
Первобытный / Primal (2019) BDRip 1080p | L

Название: Первобытный
Оригинальное название: Primal
Год выхода: 2019
Жанр: боевик
Режиссер: Ник Пауэлл
В ролях: Николас Кейдж, Фамке Янссен, Кевин Дюран, ЛаМоника Гаррет, Майкл Империоли, Том Уолкер, Рей Эрнандес, Джон Льюис, Джейм Айризэрри

О фильме:
Охотник и зверолов Фрэнк Уолш промышляет редкими видами животных. Недавно он поймал в дождевых лесах Бразилии белого ягуара и теперь рассчитывает продать его в зоопарк за кругленькую сумму. Но кроме Фрэнка и его живого груза на борту корабля, следующего в Америку, оказывается опасный убийца, который должен предстать перед судом, и которого по медицинским показаниям нельзя перевозить на самолёте. В пути преступник сбегает и выпускает из клеток не только обезьян и ядовитых змей, но и агрессивного ягуара.

Страна: США
Студия: Daniel Grodnik Productions, Imprint Entertainment, Pimienta
Продолжительность: 01:36:50
Перевод: Любительский (многоголосый, закадровый) Без рекламы.

Файл
Кодек: h.264
Качество: BDRip 1080p
Видео: MPEG-4 AVC, 9053 Кбит/с, 1920x800, 23,976 кадр/с
Звук:
Русский: 48 kHz, AC3 Dolby Digital, 2/0 (L,R) ch, ~192 kbps / Любительский (многоголосый, закадровый) | AlphaProject
Английский: 48 kHz, AC3 Dolby Digital, 3/2 (L,C,R,l,r) + LFE ch, ~640 kbps avg
Субтитры: Английские (Full, SDH)


[+] MI
General
Unique ID                                : 183502834681809246908924982415960417476 (0x8A0D5C447183F1B1F6FC401C5C3DA4C4)
Complete name                            : C:KINOPrimal.2019.1080p.BDRip.mkv
Format                                   : Matroska
Format version                           : Version 4
File size                                : 6.68 GiB
Duration                                 : 1 h 36 min
Overall bit rate                         : 9 873 kb/s
Encoded date                             : UTC 2019-12-23 09:15:02
Writing application                      : mkvmerge v38.0.0 ('The Silent Type') 64-bit
Writing library                          : libebml v1.3.9 + libmatroska v1.5.2
Cover                                    : Yes
Attachments                              : cover.jpg

Video
ID                                       : 1
Format                                   : AVC
Format/Info                              : Advanced Video Codec
Format profile                           : High@L4.1
Format settings                          : CABAC / 5 Ref Frames
Format settings, CABAC                   : Yes
Format settings, Reference frames        : 5 frames
Codec ID                                 : V_MPEG4/ISO/AVC
Duration                                 : 1 h 36 min
Bit rate                                 : 9 053 kb/s
Width                                    : 1 920 pixels
Height                                   : 808 pixels
Display aspect ratio                     : 2.40:1
Frame rate mode                          : Constant
Frame rate                               : 23.976 (24000/1001) FPS
Color space                              : YUV
Chroma subsampling                       : 4:2:0
Bit depth                                : 8 bits
Scan type                                : Progressive
Bits/(Pixel*Frame)                       : 0.243
Stream size                              : 6.11 GiB (92%)
Title                                    : BDRip.1080p by Silverok
Writing library                          : x264 core 158 r2988 7817004
Encoding settings                        : cabac=1 / ref=5 / deblock=1:-3:-3 / analyse=0x3:0x113 / me=umh / subme=8 / psy=1 / psy_rd=1.00:0.00 / mixed_ref=1 / me_range=16 / chroma_me=1 / trellis=1 / 8x8dct=1 / cqm=0 / deadzone=21,11 / fast_pskip=1 / chroma_qp_offset=-2 / threads=25 / lookahead_threads=4 / sliced_threads=0 / nr=0 / decimate=1 / interlaced=0 / bluray_compat=0 / constrained_intra=0 / bframes=3 / b_pyramid=2 / b_adapt=1 / b_bias=0 / direct=3 / weightb=1 / open_gop=0 / weightp=2 / keyint=250 / keyint_min=23 / scenecut=40 / intra_refresh=0 / rc_lookahead=50 / rc=2pass / mbtree=1 / bitrate=9053 / ratetol=1.0 / qcomp=0.60 / qpmin=0 / qpmax=69 / qpstep=4 / cplxblur=20.0 / qblur=0.5 / ip_ratio=1.40 / aq=1:1.00
Default                                  : Yes
Forced                                   : No

Audio #1
ID                                       : 2
Format                                   : AC-3
Format/Info                              : Audio Coding 3
Commercial name                          : Dolby Digital
Codec ID                                 : A_AC3
Duration                                 : 1 h 36 min
Bit rate mode                            : Constant
Bit rate                                 : 192 kb/s
Channel(s)                               : 2 channels
Channel layout                           : L R
Sampling rate                            : 48.0 kHz
Frame rate                               : 31.250 FPS (1536 SPF)
Compression mode                         : Lossy
Stream size                              : 133 MiB (2%)
Title                                    : Любительский (многоголосый) [AlphaProject]
Language                                 : Russian
Service kind                             : Complete Main
Default                                  : Yes
Forced                                   : No

Audio #2
ID                                       : 3
Format                                   : AC-3
Format/Info                              : Audio Coding 3
Commercial name                          : Dolby Digital
Codec ID                                 : A_AC3
Duration                                 : 1 h 36 min
Bit rate mode                            : Constant
Bit rate                                 : 640 kb/s
Channel(s)                               : 6 channels
Channel layout                           : L R C LFE Ls Rs
Sampling rate                            : 48.0 kHz
Frame rate                               : 31.250 FPS (1536 SPF)
Compression mode                         : Lossy
Stream size                              : 443 MiB (6%)
Language                                 : English
Service kind                             : Complete Main
Default                                  : No
Forced                                   : No

Text #1
ID                                       : 4
Format                                   : UTF-8
Codec ID                                 : S_TEXT/UTF8
Codec ID/Info                            : UTF-8 Plain Text
Duration                                 : 1 h 29 min
Bit rate                                 : 50 b/s
Count of elements                        : 1191
Stream size                              : 32.7 KiB (0%)
Title                                    : Full
Language                                 : English
Default                                  : No
Forced                                   : No

Text #2
ID                                       : 5
Format                                   : UTF-8
Codec ID                                 : S_TEXT/UTF8
Codec ID/Info                            : UTF-8 Plain Text
Duration                                 : 1 h 31 min
Bit rate                                 : 58 b/s
Count of elements                        : 1407
Stream size                              : 39.0 KiB (0%)
Title                                    : SDH
Language                                 : English
Default                                  : No
Forced                                   : No



Скриншоты:
[+] Всего файлов в раздаче - 1:
Primal.2019.1080p.BDRip.mkv6.68 GB

Похожие раздачи по запросу - первобытный:
2019-12-24 U Первобытный / Primal (2019) HDRip от Portablius | L 2К745.42 MB ↑ 69 ↓ 23
2019-11-22 U Первобытный / Primal (2019) WEBRip 720p | L 2.79 GB ↑ 102 ↓ 71
2019-11-22 U Первобытный / Primal (2019) WEB-DLRip | L 748.96 MB ↑ 253 ↓ 59
2019-11-22 U Первобытный / Primal (2019) WEB-DL 1080p | L 5.69 GB ↑ 134 ↓ 109
2019-11-22 U Первобытный / Primal (2019) WEB-DLRip | L 1.46 GB ↑ 278 ↓ 49
2019-10-20 U Первобытный / Primal [S01] (2019) WEB-DL 1080p 4.11 GB ↑ 432 ↓ 238

Отзывы
Зарегистрируйтесь чтобы добавить комментарий.
Обратная связь
Copyleft ©