↑↓torrent.by
Поиск
Логин: Регистрация
Пароль: Восстановить пароль

Zомбилэнд: Контрольный выстрел / Zombieland: Double Tap (2019) BDRip-AVC | D

Скачать zombilend-kontrolnyy-vystrel-zombieland-double-tap-2019-bdrip-avc-d.torrent
U Магнитная ссылка Размер: 1.64 GB Раздают: 70 Качают: 15 Добавлен: 2019-12-25 06:04:48
Zомбилэнд: Контрольный выстрел / Zombieland: Double Tap (2019) BDRip-AVC | D

Название: Zомбилэнд: Контрольный выстрел
Оригинальное название: Zombieland: Double Tap
Год выхода: 2019
Жанр: Ужасы, боевик, комедия
Режиссер: Рубен Фляйшер
В ролях: Джесси Айзенберг, Вуди Харрельсон, Эмма Стоун, Эбигейл Бреслин, Зои Дойч, Розарио Доусон, Эван Джогиа, Билл Мюррей, Дэн Эйкройд, Люк Уилсон, Томас Миддлдитч, Виктория Холл, Виктор Ривера, Рэйчел Латтрелл, Джон Диксон, Ронни Мэтью, Дэвид Фляйшер

О фильме:
Беспощадная и бесстрашная четверка охотников на зомби продолжает свое путешествие в глубь страны. На этот раз им предстоит сразиться не только с новыми видами живых мертвецов, но и вступить в схватку с другими выжившими, которые настроены совсем не дружелюбно. Кроме того, в собственных рядах охотников намечается серьезный разлад.

Страна: США, Канада
Студия: Columbia Pictures Corporation, Pariah
Продолжительность: 01:39:02
Перевод: Дублированный | Онлайн кинотеатр

Файл
Кодек: x.264
Качество: BDRip-AVC
Видео: MPEG-4 AVC, 1800 Kбит/с, 1056x440, 23.976 кадр/с
Аудио #1: Русский (АС3, 2 ch, 192 Кбит/с, 48.0 KHz) Профессиональный (дублированный) Онлайн кинотеатр
Аудио #3: Английский (АС3, 6 ch, 384 Кбит/с, 48.0 KHz)
Субтитры: Русские (Full), английские
► Без Рекламы!


[+] MediaInfo

General
Unique ID                      : 214695062416693166159840650292672023002 (0xA184C3D48D5EC36C8B1A9F5F62E749DA)
Complete name                  : Zombieland.Double.Tap.2019.BDRip-AVC.mkv
Format                         : Matroska
Format version                 : Version 4
File size                      : 1.64 GiB
Duration                       : 1 h 39 min
Overall bit rate               : 2 377 kb/s
Encoded date                   : UTC 2019-12-24 18:46:47
Writing application            : mkvmerge v7.1.0 ('Good Love') 64bit built on Jul 27 2014 13:06:55
Writing library                : libebml v1.3.0 + libmatroska v1.4.1

Video
ID                             : 1
Format                         : AVC
Format/Info                    : Advanced Video Codec
Format profile                 : High@L4.1
Format settings                : CABAC / 9 Ref Frames
Format settings, CABAC         : Yes
Format settings, Reference fra : 9 frames
Codec ID                       : V_MPEG4/ISO/AVC
Duration                       : 1 h 39 min
Bit rate                       : 1 800 kb/s
Width                          : 1 056 pixels
Height                         : 440 pixels
Display aspect ratio           : 2.40:1
Frame rate mode                : Constant
Frame rate                     : 23.976 (24000/1001) FPS
Color space                    : YUV
Chroma subsampling             : 4:2:0
Bit depth                      : 8 bits
Scan type                      : Progressive
Bits/(Pixel*Frame)             : 0.162
Stream size                    : 1.24 GiB (76%)
Writing library                : x264 core 148 r2638 7599210
Encoding settings              : cabac=1 / ref=9 / deblock=1:-3:-3 / analyse=0x3:0x113 / me=umh / subme=11 / psy=1 / psy_rd=1.00:0.00 / mixed_ref=1 / me_range=32 / chroma_me=1 / trellis=2 / 8x8dct=1 / cqm=0 / deadzone=21,11 / fast_pskip=1 / chroma_qp_offset=-2 / threads=6 / lookahead_threads=1 / sliced_threads=0 / nr=0 / decimate=1 / interlaced=0 / bluray_compat=0 / constrained_intra=0 / bframes=10 / b_pyramid=2 / b_adapt=2 / b_bias=0 / direct=3 / weightb=1 / open_gop=0 / weightp=2 / keyint=250 / keyint_min=23 / scenecut=40 / intra_refresh=0 / rc_lookahead=40 / rc=2pass / mbtree=1 / bitrate=1800 / ratetol=1.0 / qcomp=0.60 / qpmin=0 / qpmax=69 / qpstep=4 / cplxblur=20.0 / qblur=0.5 / vbv_maxrate=50000 / vbv_bufsize=62500 / nal_hrd=none / filler=0 / ip_ratio=1.40 / aq=1:1.00
Language                       : English
Default                        : Yes
Forced                         : No

Audio #1
ID                             : 2
Format                         : AC-3
Format/Info                    : Audio Coding 3
Commercial name                : Dolby Digital
Codec ID                       : A_AC3
Duration                       : 1 h 39 min
Bit rate mode                  : Constant
Bit rate                       : 192 kb/s
Channel(s)                     : 2 channels
Channel layout                 : L R
Sampling rate                  : 48.0 kHz
Frame rate                     : 31.250 FPS (1536 SPF)
Compression mode               : Lossy
Stream size                    : 136 MiB (8%)
Language                       : Russian
Service kind                   : Complete Main
Default                        : Yes
Forced                         : No

Audio #2
ID                             : 3
Format                         : AC-3
Format/Info                    : Audio Coding 3
Commercial name                : Dolby Digital
Codec ID                       : A_AC3
Duration                       : 1 h 39 min
Bit rate mode                  : Constant
Bit rate                       : 384 kb/s
Channel(s)                     : 6 channels
Channel layout                 : L R C LFE Ls Rs
Sampling rate                  : 48.0 kHz
Frame rate                     : 31.250 FPS (1536 SPF)
Compression mode               : Lossy
Stream size                    : 272 MiB (16%)
Language                       : English
Service kind                   : Complete Main
Default                        : No
Forced                         : No

Text #1
ID                             : 4
Format                         : UTF-8
Codec ID                       : S_TEXT/UTF8
Codec ID/Info                  : UTF-8 Plain Text
Duration                       : 1 h 38 min
Bit rate                       : 138 b/s
Count of elements              : 1809
Stream size                    : 100 KiB (0%)
Title                          : Full
Language                       : Russian
Default                        : No
Forced                         : No

Text #2
ID                             : 5
Format                         : UTF-8
Codec ID                       : S_TEXT/UTF8
Codec ID/Info                  : UTF-8 Plain Text
Duration                       : 28 min 6 s
Bit rate                       : 0 b/s
Count of elements              : 7
Stream size                    : 157 Bytes (0%)
Title                          : Forced
Language                       : English
Default                        : No
Forced                         : No

Text #3
ID                             : 6
Format                         : UTF-8
Codec ID                       : S_TEXT/UTF8
Codec ID/Info                  : UTF-8 Plain Text
Duration                       : 1 h 38 min
Bit rate                       : 83 b/s
Count of elements              : 1805
Stream size                    : 60.2 KiB (0%)
Title                          : Full
Language                       : English
Default                        : No
Forced                         : No

Menu
00:00:00.000                   : en:Chapter 1
00:05:00.675                   : en:Chapter 2
00:11:08.001                   : en:Chapter 3
00:15:24.507                   : en:Chapter 4
00:21:16.192                   : en:Chapter 5
00:29:15.545                   : en:Chapter 6
00:36:55.422                   : en:Chapter 7
00:44:03.015                   : en:Chapter 8
00:50:12.968                   : en:Chapter 9
00:57:52.511                   : en:Chapter 10
01:03:51.870                   : en:Chapter 11
01:06:50.048                   : en:Chapter 12
01:10:12.125                   : en:Chapter 13
01:15:40.119                   : en:Chapter 14
01:23:45.312                   : en:Chapter 15
01:29:48.216                   : en:Chapter 16



Скриншоты:
[+] Всего файлов в раздаче - 1:
Zombieland.Double.Tap.2019.BDRip-AVC.mkv1.64 GB

Показать еще раздачи по запросу zомбилэнд:
2020-01-01 U Zомбилэнд: Контрольный выстрел / Zombieland: Double Tap (2019) BDRip-HEVC 1080p от HEVC-CLUB | iTunes 1К8.11 GB ↑ 58 ↓ 24
2019-12-30 U Zомбилэнд: Контрольный выстрел / Zombieland: Double Tap (2019) BDRip от Twister & ExKinoRay | iTunes 1.42 GB ↑ 236 ↓ 40
2019-12-29 U Zомбилэнд: Контрольный выстрел / Zombieland: Double Tap (2019) BDRip-AVC от ExKinoRay | iTunes 2.79 GB ↑ 184 ↓ 20
2019-12-29 U Zомбилэнд: Контрольный выстрел / Zombieland: Double Tap (2019) HDRip от Portablius | iTunes 741.90 MB ↑ 46 ↓ 7
2019-12-28 U Zомбилэнд: Контрольный выстрел / Zombieland: Double Tap (2019) HDRip от Scarabey | iTunes 1.40 GB ↑ 761 ↓ 39
2019-12-28 U Zомбилэнд: Контрольный выстрел / Zombieland: Double Tap (2019) BDRip-AVC от ExKinoRay | iTunes 2.48 GB ↑ 85 ↓ 44
2019-12-27 U Zомбилэнд: Контрольный выстрел / Zombieland: Double Tap (2019) BDRemux 1080p от селезень | iTunes 22.58 GB ↑ 105 ↓ 154

Отзывы
Зарегистрируйтесь чтобы добавить комментарий.
Обратная связь
Copyleft ©