↑↓torrent.by
Поиск
Логин: Регистрация
Пароль: Восстановить пароль

Хочу тебя / Sangre (2020) WEB-DLRip | P

Скачать hochu-tebya-sangre-2020-web-dlrip-p.torrent
U Магнитная ссылка Размер: 1.46 GB Раздают: 53 Качают: 59 Добавлен: 2021-09-19 12:42:28
Хочу тебя / Sangre (2020) WEB-DLRip | P

Жанр:  драма
Год выпуска: 2020
Режиссер:Хуан Шнитман / Juan Schnitman
В ролях: Хуан Барберини, Наталия Тена, Изабелла Камеро, Дирк Мартенс, Джулиан Кабрера, Александр Керти, Марсело Д'Андреа, Джонатан Да Роса, Владимир Дюран, Соледад Гарсия

Описание:
Фернандо встречает Мелиссу и между ними вспыхивает страсть. Но и от романа со страстной танцовщицей Габриэлой он не намерен отказываться. Когда женщины узнают о существовании друг друга, ему придется распутывать клубок из влечения и одержимости. Куда его приведет животная жажда?

Страна: Аргентина, Испания, Бразилия, Германия
Продолжительность: 01:42:17
Перевод: Профессиональный (многоголосый закадровый) | IVI
Субтитры: нет
Оригинальная аудиодорожка: нет

Качество видео: WEB-DLRip
Формат видео: AVI
Видео: 720x304 (2.37:1), 23.976 fps, XviD build 73 ~1644 kbps avg, 0.31 bit/pixel
Аудио: 48 kHz, AC3 Dolby Digital, 3/2 (L,C,R,l,r) + LFE ch, ~384 kbps


[+] M/I
Формат                                   : AVI
Формат/Информация                        : Audio Video Interleave
Размер файла                             : 1,46 Гбайт
Продолжительность                        : 1 ч. 42 м.
Общий поток                              : 2 038 Кбит/сек
Название фильма                          : Хочу тебя_2020_WEB-DLRip
Программа кодирования                    : VirtualDubMod 1.5.10.3 | www.virtualdub-fr.org || (build 2550/release)
Авторское право                          : порошков

Видео
Идентификатор                            : 0
Формат                                   : MPEG-4 Visual
Профиль формата                          : Advanced Simple@L5
Настройки формата                        : BVOP1 / Custom Matrix
Параметр BVOP формата                    : 1
Параметр QPel формата                    : Нет
Параметр GMC формата                     : Без точки перехода
Параметр матрицы формата                 : Выборочная
Идентификатор кодека                     : XVID
Идентификатор кодека/Подсказка           : XviD
Продолжительность                        : 1 ч. 42 м.
Битрейт                                  : 1 645 Кбит/сек
Ширина                                   : 720 пикселей
Высота                                   : 304 пикселя
Соотношение сторон                       : 2,35:1
Частота кадров                           : 23,976 (24000/1001) кадра/сек
Цветовое пространство                    : YUV
Субдискретизация насыщенности            : 4:2:0
Битовая глубина                          : 8 бит
Тип развёртки                            : Прогрессивная
Метод сжатия                             : С потерями
Бит/(Пиксели*Кадры)                      : 0.313
Размер потока                            : 1,17 Гбайт (81%)
Библиотека кодирования                   : XviD 73

Аудио
Идентификатор                            : 1
Формат                                   : AC-3
Формат/Информация                        : Audio Coding 3
Коммерческое название                    : Dolby Digital
Идентификатор кодека                     : 2000
Продолжительность                        : 1 ч. 42 м.
Вид битрейта                             : Постоянный
Битрейт                                  : 384 Кбит/сек
Каналы                                   : 6 каналов
Channel layout                           : L R C LFE Ls Rs
Частота                                  : 48,0 КГц
Частота кадров                           : 31,250 кадров/сек (1536 SPF)
Метод сжатия                             : С потерями
Размер потока                            : 281 Мбайт (19%)
Выравнивание                             : Разделение по промежуткам
Продолжительность промежутка             : 42  мс. (1,00 видеокадр)
Время предзагрузки промежутка            : 500  мс.
Service kind                             : Complete Main



Скриншоты:
[+] Всего файлов в раздаче - 1:
Хочу тебя_2020_WEB-DLRip.avi1.46 GB

Похожие раздачи по запросу - хочу:
2021-10-17 U Хочу всё знать! [01-41 из 60] (2021) WEB-DLRip 6.66 GB ↑ 47 ↓ 48
2021-09-20 U Хочу тебя / Sangre (2020) WEB-DLRip | P 746.92 MB ↑ 92 ↓ 63
2021-08-29 U Хочу верить (1965) DVDRip-AVC от New-Team 1.09 GB ↑ 5 ↓ 6

Отзывы
Зарегистрируйтесь чтобы добавить комментарий.
Загрузите программу
  byTorrent
Обратная связь
Copyleft ©