↑↓torrent.by
Поиск
Логин: Регистрация
Пароль: Восстановить пароль

Zомбилэнд: Контрольный выстрел / Zombieland: Double Tap (2019) BDRemux 1080p от селезень | iTunes

Скачать zombilend-kontrolnyy-vystrel-zombieland-double-tap-2019-bdremux-1080p-ot-selezen-itunes.torrent
U Магнитная ссылка Размер: 22.58 GB Раздают: 105 Качают: 154 Добавлен: 2019-12-27 11:54:34
Zомбилэнд: Контрольный выстрел / Zombieland: Double Tap (2019) BDRemux 1080p от селезень | iTunes

Название: Zомбилэнд: Контрольный выстрел
Оригинальное название: Zombieland: Double Tap
Год выхода: 2019
Жанр: Ужасы, боевик, комедия
Режиссер: Рубен Фляйшер
В ролях: Джесси Айзенберг, Вуди Харрельсон, Эмма Стоун, Эбигейл Бреслин, Зои Дойч, Розарио Доусон, Эван Джогиа, Билл Мюррей, Дэн Эйкройд, Люк Уилсон, Томас Миддлдитч, Виктория Холл

О фильме: Беспощадная и бесстрашная четверка охотников на зомби продолжает свое путешествие в глубь страны. На этот раз им предстоит сразиться не только с новыми видами живых мертвецов, но и вступить в схватку с другими выжившими, которые настроены совсем не дружелюбно. Кроме того, в собственных рядах охотников намечается серьезный разлад.

Страна: США
Студия: Канада, Columbia Pictures Corporation, Pariah
Продолжительность: 01:39:04
Перевод: Дублированный | iTunes

Качество: BDRemux 1080p
Видео: MPEG-4 AVC, 1920x1080, 29.8 Mbit/s, 23.976 fps
Аудио #01: 48 kHz, AC3, 5.1, 384 Kbps | Дублированный | RUS |
Аудио #02: 48 kHz, AC3, 2.0, 160 Kbps | Дублированный | UKR |
Аудио #03: 48 kHz, DTS-HD MA, 5.1, 2252 Kbps | Оригинал |  ENG |
Субтитры: Русские (Forced, Full), украинские (Full), английские

Релиз:


[+] MI
General
Unique ID                   : 302187532568446278469468699607833831548 (0xE35733A7D0AF649D4889B0ED0940E87C)
Complete name               : F:Video111Zombieland.Double.Tap.2019.D.BDREMUX.1080p.seleZen.mkv
Format                      : Matroska
Format version              : Version 4
File size                   : 22.6 GiB
Duration                    : 1 h 39 min
Overall bit rate mode       : Variable
Overall bit rate            : 32.6 Mb/s
Movie name                  : Zombieland Double Tap 2019 from селезень
Encoded date                : UTC 2019-12-27 01:45:32
Writing application         : mkvmerge v40.0.0 ('Old Town Road + Pony') 64-bit
Writing library             : libebml v1.3.9 + libmatroska v1.5.2

Video
ID                          : 1
Format                      : AVC
Format/Info                 : Advanced Video Codec
Format profile              : High@L4.1
Format settings             : CABAC / 2 Ref Frames
Format settings, CABAC      : Yes
Format settings, Reference  : 2 frames
Format settings, GOP        : M=1, N=10
Codec ID                    : V_MPEG4/ISO/AVC
Duration                    : 1 h 39 min
Bit rate mode               : Variable
Bit rate                    : 29.8 Mb/s
Width                       : 1 920 pixels
Height                      : 1 080 pixels
Display aspect ratio        : 16:9
Frame rate mode             : Constant
Frame rate                  : 23.976 (24000/1001) FPS
Color space                 : YUV
Chroma subsampling          : 4:2:0
Bit depth                   : 8 bits
Scan type                   : Progressive
Bits/(Pixel*Frame)          : 0.600
Stream size                 : 20.6 GiB (91%)
Language                    : English
Default                     : Yes
Forced                      : No

Audio #1
ID                          : 2
Format                      : AC-3
Format/Info                 : Audio Coding 3
Commercial name             : Dolby Digital
Codec ID                    : A_AC3
Duration                    : 1 h 39 min
Bit rate mode               : Constant
Bit rate                    : 384 kb/s
Channel(s)                  : 6 channels
Channel layout              : L R C LFE Ls Rs
Sampling rate               : 48.0 kHz
Frame rate                  : 31.250 FPS (1536 SPF)
Bit depth                   : 16 bits
Compression mode            : Lossy
Stream size                 : 272 MiB (1%)
Title                       : iTunes
Language                    : Russian
Service kind                : Complete Main
Default                     : Yes
Forced                      : Yes

Audio #2
ID                          : 3
Format                      : AC-3
Format/Info                 : Audio Coding 3
Commercial name             : Dolby Digital
Codec ID                    : A_AC3
Duration                    : 1 h 39 min
Bit rate mode               : Constant
Bit rate                    : 160 kb/s
Channel(s)                  : 2 channels
Channel layout              : L R
Sampling rate               : 48.0 kHz
Frame rate                  : 31.250 FPS (1536 SPF)
Bit depth                   : 16 bits
Compression mode            : Lossy
Stream size                 : 113 MiB (0%)
Title                       : iTunes
Language                    : Ukrainian
Service kind                : Complete Main
Default                     : No
Forced                      : No

Audio #3
ID                          : 4
Format                      : DTS XLL
Format/Info                 : Digital Theater Systems
Commercial name             : DTS-HD Master Audio
Codec ID                    : A_DTS
Duration                    : 1 h 39 min
Bit rate mode               : Variable
Bit rate                    : 2 252 kb/s
Channel(s)                  : 6 channels
Channel layout              : C L R Ls Rs LFE
Sampling rate               : 48.0 kHz
Frame rate                  : 93.750 FPS (512 SPF)
Bit depth                   : 16 bits
Compression mode            : Lossless
Stream size                 : 1.56 GiB (7%)
Title                       : Original
Language                    : English
Default                     : No
Forced                      : No

Text #1
ID                          : 5
Format                      : UTF-8
Codec ID                    : S_TEXT/UTF8
Codec ID/Info               : UTF-8 Plain Text
Duration                    : 1 h 37 min
Bit rate                    : 1 b/s
Count of elements           : 35
Stream size                 : 1.42 KiB (0%)
Title                       : Forced [iTunes]
Language                    : Russian
Default                     : Yes
Forced                      : Yes

Text #2
ID                          : 6
Format                      : UTF-8
Codec ID                    : S_TEXT/UTF8
Codec ID/Info               : UTF-8 Plain Text
Duration                    : 1 h 38 min
Bit rate                    : 106 b/s
Count of elements           : 1736
Stream size                 : 76.7 KiB (0%)
Title                       : Full [iTunes]
Language                    : Russian
Default                     : No
Forced                      : No

Text #3
ID                          : 7
Format                      : UTF-8
Codec ID                    : S_TEXT/UTF8
Codec ID/Info               : UTF-8 Plain Text
Duration                    : 1 h 38 min
Bit rate                    : 112 b/s
Count of elements           : 1467
Stream size                 : 81.1 KiB (0%)
Title                       : Full [iTunes]
Language                    : Ukrainian
Default                     : No
Forced                      : No

Text #4
ID                          : 8
Format                      : UTF-8
Codec ID                    : S_TEXT/UTF8
Codec ID/Info               : UTF-8 Plain Text
Duration                    : 1 h 38 min
Bit rate                    : 138 b/s
Count of elements           : 1809
Stream size                 : 100 KiB (0%)
Title                       : Full v.2
Language                    : Russian
Default                     : No
Forced                      : No

Text #5
ID                          : 9
Format                      : UTF-8
Codec ID                    : S_TEXT/UTF8
Codec ID/Info               : UTF-8 Plain Text
Duration                    : 28 min 6 s
Bit rate                    : 0 b/s
Count of elements           : 7
Stream size                 : 157 Bytes (0%)
Title                       : Forced
Language                    : English
Default                     : No
Forced                      : No

Text #6
ID                          : 10
Format                      : UTF-8
Codec ID                    : S_TEXT/UTF8
Codec ID/Info               : UTF-8 Plain Text
Duration                    : 1 h 38 min
Bit rate                    : 83 b/s
Count of elements           : 1805
Stream size                 : 60.2 KiB (0%)
Title                       : Full
Language                    : English
Default                     : No
Forced                      : No

Menu
00:00:00.007                : en:Глава 01
00:05:00.682                : en:Глава 02
00:11:08.008                : en:Глава 03
00:15:24.514                : en:Глава 04
00:21:16.199                : en:Глава 05
00:29:15.552                : en:Глава 06
00:36:55.429                : en:Глава 07
00:44:03.022                : en:Глава 08
00:50:12.975                : en:Глава 09
00:57:52.518                : en:Глава 10
01:03:51.877                : en:Глава 11
01:06:50.055                : en:Глава 12
01:10:12.132                : en:Глава 13
01:15:40.126                : en:Глава 14
01:23:45.319                : en:Глава 15
01:29:48.223                : en:Глава 16



Скриншоты:
[+] Всего файлов в раздаче - 1:
Zombieland.Double.Tap.2019.D.BDREMUX.1080p.seleZen.mkv22.58 GB

Показать еще раздачи по запросу zомбилэнд:
2020-01-01 U Zомбилэнд: Контрольный выстрел / Zombieland: Double Tap (2019) BDRip-HEVC 1080p от HEVC-CLUB | iTunes 1К8.11 GB ↑ 58 ↓ 24
2019-12-30 U Zомбилэнд: Контрольный выстрел / Zombieland: Double Tap (2019) BDRip от Twister & ExKinoRay | iTunes 1.42 GB ↑ 236 ↓ 40
2019-12-29 U Zомбилэнд: Контрольный выстрел / Zombieland: Double Tap (2019) BDRip-AVC от ExKinoRay | iTunes 2.79 GB ↑ 183 ↓ 20
2019-12-29 U Zомбилэнд: Контрольный выстрел / Zombieland: Double Tap (2019) HDRip от Portablius | iTunes 741.90 MB ↑ 46 ↓ 7
2019-12-28 U Zомбилэнд: Контрольный выстрел / Zombieland: Double Tap (2019) HDRip от Scarabey | iTunes 1.40 GB ↑ 760 ↓ 39
2019-12-28 U Zомбилэнд: Контрольный выстрел / Zombieland: Double Tap (2019) BDRip-AVC от ExKinoRay | iTunes 2.48 GB ↑ 85 ↓ 44
2019-12-27 U Zомбилэнд: Контрольный выстрел / Zombieland: Double Tap (2019) BDRip 720p от селезень | iTunes 4.73 GB ↑ 314 ↓ 174

Отзывы
Зарегистрируйтесь чтобы добавить комментарий.
Обратная связь
Copyleft ©