↑↓torrent.by
Поиск
Логин: Регистрация
Пароль: Восстановить пароль

Джокер / Joker (2019) BDRip 720p от ExKinoRay | Лицензия

Скачать dzhoker-joker-2019-bdrip-720p-ot-exkinoray-licenziya.torrent
U Магнитная ссылка Размер: 4.53 GB Раздают: 417 Качают: 120 Добавлен: 2019-12-28 08:54:43
Джокер / Joker (2019) BDRip 720p от ExKinoRay | Лицензия

Название: Джокер
Оригинальное название: Joker
Год выпуска: 2019
Жанр:  Триллер, драма, криминал
Режиссер: Тодд Филлипс
В ролях: Хоакин Феникс, Роберт Де Ниро, Зази Битц, Джоли Чань, Марк Мэрон, Фрэнсис Конрой, Мэри Кейт Малат, Ши Уигхэм, Брайан Коллен, Бретт Каллен

Описание:  
Готэм, начало 1980-х годов. Комик Артур Флек живет с больной матерью, которая с детства учит его «ходить с улыбкой». Пытаясь нести в мир хорошее и дарить людям радость, Артур сталкивается с человеческой жестокостью и постепенно приходит к выводу, что этот мир получит от него не добрую улыбку, а ухмылку злодея Джокера.

Выпущено: Канада, США, Warner Bros., Village Roadshow Pictures, DC Entertainment, DC Comics, 22 & Indiana Pictures
Продолжительность: 02:01:49
Перевод: Дублированный (Лицензия)

Формат: MKV
Качество: BDRip 720p
Видео: AVC/H.264, 1280x692, ~4239 Кbps, 23.976 fps
Звук:
Аудио 1: AC3, 5/1 ch, 448 Kbps - Русский (Лицензия)
Аудио 2: AC3, 5/1 ch, 640 Kbps - Английский
Субтитры: Русские (2xforced, 2xfull (iTunes, Enigma)), английские

Релиз:

Автор релиза:


[+] ОтчетМедиаИнфо

General
Unique ID                                : 173139099742756611934373958244457472935 (0x824160AF3C4D2BAB96BCAFDE746F63A7)
Complete name                            : F:Joker.2019.BDRip.720p.ExKinoRay.mkv
Format                                   : Matroska
Format version                           : Version 2
File size                                : 4.53 GiB
Duration                                 : 2 h 1 min
Overall bit rate                         : 5 327 kb/s
Movie name                               : Joker 2019 from ExKinoRay
Encoded date                             : UTC 2019-12-27 10:44:35
Writing application                      : mkvmerge v5.6.0 ('Kenya Kane') built on May 27 2012 16:44:04
Writing library                          : libebml v1.2.3 + libmatroska v1.3.0
Attachments                              : front.jpg

Video
ID                                       : 1
Format                                   : AVC
Format/Info                              : Advanced Video Codec
Format profile                           : High@L4.1
Format settings, CABAC                   : Yes
Format settings, ReFrames                : 9 frames
Codec ID                                 : V_MPEG4/ISO/AVC
Duration                                 : 2 h 1 min
Bit rate                                 : 4 239 kb/s
Width                                    : 1 280 pixels
Height                                   : 692 pixels
Display aspect ratio                     : 1.85:1
Frame rate mode                          : Constant
Frame rate                               : 23.976 (23976/1000) FPS
Color space                              : YUV
Chroma subsampling                       : 4:2:0
Bit depth                                : 8 bits
Scan type                                : Progressive
Bits/(Pixel*Frame)                       : 0.200
Stream size                              : 3.52 GiB (78%)
Title                                    : Enigma
Writing library                          : x264 core 152 r2851 ba24899
Encoding settings                        : cabac=1 / ref=9 / deblock=1:-2:-2 / analyse=0x3:0x113 / me=umh / subme=11 / psy=1 / psy_rd=1.05:0.10 / mixed_ref=1 / me_range=32 / chroma_me=1 / trellis=2 / 8x8dct=1 / cqm=0 / deadzone=21,11 / fast_pskip=0 / chroma_qp_offset=-3 / threads=12 / lookahead_threads=3 / sliced_threads=0 / nr=0 / decimate=0 / interlaced=0 / bluray_compat=0 / constrained_intra=0 / bframes=10 / b_pyramid=2 / b_adapt=2 / b_bias=0 / direct=3 / weightb=1 / open_gop=0 / weightp=2 / keyint=240 / keyint_min=23 / scenecut=40 / intra_refresh=0 / rc=2pass / mbtree=0 / bitrate=4239 / ratetol=1.0 / qcomp=0.60 / qpmin=0 / qpmax=51 / qpstep=4 / cplxblur=20.0 / qblur=0.5 / ip_ratio=1.40 / pb_ratio=1.30 / aq=1:1.00
Language                                 : English
Default                                  : Yes
Forced                                   : No
Color range                              : Limited
Color primaries                          : BT.709
Transfer characteristics                 : BT.709
Matrix coefficients                      : BT.709

Audio #1
ID                                       : 2
Format                                   : AC-3
Format/Info                              : Audio Coding 3
Mode extension                           : CM (complete main)
Format settings, Endianness              : Big
Codec ID                                 : A_AC3
Duration                                 : 2 h 1 min
Bit rate mode                            : Constant
Bit rate                                 : 448 kb/s
Channel(s)                               : 6 channels
Channel positions                        : Front: L C R, Side: L R, LFE
Sampling rate                            : 48.0 kHz
Frame rate                               : 31.250 FPS (1536 spf)
Compression mode                         : Lossy
Stream size                              : 390 MiB (8%)
Title                                    : Dub (Blu-Ray)
Language                                 : Russian
Default                                  : Yes
Forced                                   : No

Audio #2
ID                                       : 3
Format                                   : AC-3
Format/Info                              : Audio Coding 3
Mode extension                           : CM (complete main)
Format settings, Endianness              : Big
Codec ID                                 : A_AC3
Duration                                 : 2 h 1 min
Bit rate mode                            : Constant
Bit rate                                 : 640 kb/s
Channel(s)                               : 6 channels
Channel positions                        : Front: L C R, Side: L R, LFE
Sampling rate                            : 48.0 kHz
Frame rate                               : 31.250 FPS (1536 spf)
Compression mode                         : Lossy
Stream size                              : 558 MiB (12%)
Title                                    : Original
Language                                 : English
Default                                  : No
Forced                                   : No

Text #1
ID                                       : 4
Format                                   : UTF-8
Codec ID                                 : S_TEXT/UTF8
Codec ID/Info                            : UTF-8 Plain Text
Title                                    : Forced (iTunes)
Language                                 : Russian
Default                                  : Yes
Forced                                   : No

Text #2
ID                                       : 5
Format                                   : UTF-8
Codec ID                                 : S_TEXT/UTF8
Codec ID/Info                            : UTF-8 Plain Text
Title                                    : Forced (Enigma)
Language                                 : Russian
Default                                  : No
Forced                                   : No

Text #3
ID                                       : 6
Format                                   : UTF-8
Codec ID                                 : S_TEXT/UTF8
Codec ID/Info                            : UTF-8 Plain Text
Title                                    : Full (Enigma)
Language                                 : Russian
Default                                  : No
Forced                                   : No

Text #4
ID                                       : 7
Format                                   : UTF-8
Codec ID                                 : S_TEXT/UTF8
Codec ID/Info                            : UTF-8 Plain Text
Title                                    : Full (iTunes)
Language                                 : Russian
Default                                  : No
Forced                                   : No

Text #5
ID                                       : 8
Format                                   : UTF-8
Codec ID                                 : S_TEXT/UTF8
Codec ID/Info                            : UTF-8 Plain Text
Title                                    : Full
Language                                 : English
Default                                  : No
Forced                                   : No

Text #6
ID                                       : 9
Format                                   : UTF-8
Codec ID                                 : S_TEXT/UTF8
Codec ID/Info                            : UTF-8 Plain Text
Title                                    : SDH
Language                                 : English
Default                                  : No
Forced                                   : No

Menu
00:00:01.700                             : en:Studio Logo
00:00:15.700                             : en:Makeup
00:01:32.700                             : en:Broken Sign
00:03:43.700                             : en:Therapy
00:07:42.700                             : en:Bus
00:09:15.700                             : en:Meeting Murray
00:15:21.700                             : en:Protection
00:19:13.700                             : en:Enter Sophie
00:21:01.700                             : en:Bath
00:23:34.700                             : en:Following
00:24:53.700                             : en:Comedy Scout
00:26:01.700                             : en:Invite
00:27:59.700                             : en:Hospital Gig
00:29:23.700                             : en:Subway Scuffle
00:34:10.700                             : en:Fleeing
00:36:14.700                             : en:First Kiss
00:36:46.700                             : en:Punching Out
00:38:14.700                             : en:Wayne Interview
00:39:56.700                             : en:Negative Thoughts
00:42:14.700                             : en:Open Mic
00:45:15.700                             : en:Date
00:46:21.700                             : en:Letter to Wayne
00:50:23.700                             : en:Clipping
00:51:12.700                             : en:Wayne Manor
00:55:16.700                             : en:Emergency
00:56:19.700                             : en:Detectives
00:58:32.700                             : en:Arthur on T.V.
01:01:01.700                             : en:Protest Coverage
01:02:18.700                             : en:Meeting Wayne
01:07:11.700                             : en:Invitation
01:09:36.700                             : en:Arkham
01:13:26.700                             : en:Penny's File
01:15:41.700                             : en:Sophie's Place
01:19:49.700                             : en:Life's a Comedy
01:22:12.700                             : en:Practice
01:24:28.700                             : en:Randall and Gary visit Arthur
01:30:15.700                             : en:Stairwell Waltz
01:34:51.700                             : en:Dressing Room
01:37:02.700                             : en:Arthur's Big Moment
01:46:35.700                             : en:Riot
01:49:05.700                             : en:Crime Alley
01:50:02.700                             : en:Joker's Fans
01:52:33.700                             : en:Thinking of a Joke
01:55:39.700                             : en:End Credits




Скриншоты:
[+] Всего файлов в раздаче - 1:
Joker.2019.BDRip.720p.ExKinoRay.mkv4.53 GB

Показать еще раздачи по запросу джокер:
2020-01-21 U Джокер / Joker (2019) BDRip 720p от k.e.n & MegaPeer | D, P, A | Лицензия 5.59 GB ↑ 3 ↓ 44
2020-01-13 U Джокер / Joker (2019) BDRip от HQ-ViDEO | D | Лицензия 2.18 GB ↑ 38 ↓ 24
2020-01-08 U Джокер / Joker (2019) BDRip-AVC | Лицензия 748.91 MB ↑ 38 ↓ 5
2019-12-31 U Джокер / Joker (2019) BDRip 720p | D, P, A 5.13 GB ↑ 34 ↓ 10
2019-12-29 U Джокер / Joker (2019) BDRip 720p от Scarabey | Лицензия 4.75 GB ↑ 200 ↓ 26
2019-12-28 U Джокер / Joker (2019) BDRip-AVC от Generalfilm | Лицензия 1.64 GB ↑ 261 ↓ 75
2019-12-28 U Джокер / Joker (2019) HDRip от Scarabey | Лицензия 1.44 GB ↑ 256 ↓ 16

Отзывы
Зарегистрируйтесь чтобы добавить комментарий.
Обратная связь
Copyleft ©