↑↓torrent.by
Поиск
Логин: Регистрация
Пароль: Восстановить пароль

Джокер / Joker (2019) BDRemux 1080p от селезень | D, P, A | Лицензия

Скачать dzhoker-joker-2019-bdremux-1080p-ot-selezen-d-p-a-licenziya.torrent
U Магнитная ссылка Размер: 26.19 GB Раздают: 80 Качают: 66 Добавлен: 2019-12-28 08:56:19
Джокер / Joker (2019) BDRemux 1080p от селезень | D, P, A | Лицензия

Название: Джокер
Оригинальное название: Joker
Год выхода: 2019
Жанр: Триллер, драма, криминал
Режиссер: Тодд Филлипс
В ролях: Хоакин Феникс, Роберт Де Ниро, Зази Битц, Джоли Чань, Марк Мэрон, Фрэнсис Конрой, Мэри Кейт Малат, Ши Уигхэм, Брайан Коллен, Бретт Каллен, Билл Кэмп, Гленн Флешлер, Ли Гилл, Джош Пэйс

О фильме: Готэм, начало 1980-х годов. Комик Артур Флек живет с больной матерью, которая с детства учит его «ходить с улыбкой». Пытаясь нести в мир хорошее и дарить людям радость, Артур сталкивается с человеческой жестокостью и постепенно приходит к выводу, что этот мир получит от него не добрую улыбку, а ухмылку злодея Джокера.

Страна: Канада, США
Студия: Warner Bros., Village Roadshow Pictures, DC Entertainment, DC Comics, 22 & Indiana Pictures
Продолжительность: 02:01:49
Перевод(ы):
#1: Дублированный | Лицензия
#2: Профессиональный многоголосый | HDRezka Studio
#3: Авторский | М. Чадов

Качество: BDRemux 1080p
Видео: MPEG-4 AVC, 1920x1080, 19.8 Mbit/s, 23.976 fps
Аудио #01: 48 kHz, AC3, 5.1, 448 Kbps | Дублированный | RUS |
Аудио #02: 48 kHz, AC3, 2.0, 192 Kbps | HDRezka Studio | RUS |
Аудио #03: 48 kHz, DTS-HD MA, 7.1, 5179 Kbps | Авторский | RUS |
Аудио #04: 48 kHz, TrueHD, 7.1, 3819 Kbps | Оригинал |  ENG |
Аудио #05: 48 kHz, AC3, 5.1, 640 Kbps | Оригинал |  ENG |
Субтитры: Русские ((Forced, full [Enigma]), (Forced, full [iTunes]), английские

Релиз:


[+] MI
General
Unique ID                   : 154345624602407165535772219165719672635 (0x741DE2D2408AD158D17CF3533B94373B)
Complete name               : H:Video222Joker.2019.Lic.BDREMUX.1080p.seleZen.mkv
Format                      : Matroska
Format version              : Version 4
File size                   : 26.2 GiB
Duration                    : 2 h 1 min
Overall bit rate mode       : Variable
Overall bit rate            : 30.8 Mb/s
Movie name                  : Joker 2019 from селезень
Encoded date                : UTC 2019-12-27 10:11:47
Writing application         : mkvmerge v40.0.0 ('Old Town Road + Pony') 64-bit
Writing library             : libebml v1.3.9 + libmatroska v1.5.2

Video
ID                          : 1
Format                      : AVC
Format/Info                 : Advanced Video Codec
Format profile              : High@L4.1
Format settings             : CABAC / 4 Ref Frames
Format settings, CABAC      : Yes
Format settings, Reference  : 4 frames
Codec ID                    : V_MPEG4/ISO/AVC
Duration                    : 2 h 1 min
Bit rate mode               : Variable
Bit rate                    : 19.8 Mb/s
Maximum bit rate            : 22.0 Mb/s
Width                       : 1 920 pixels
Height                      : 1 080 pixels
Display aspect ratio        : 16:9
Frame rate mode             : Constant
Frame rate                  : 23.976 (24000/1001) FPS
Color space                 : YUV
Chroma subsampling          : 4:2:0
Bit depth                   : 8 bits
Scan type                   : Progressive
Bits/(Pixel*Frame)          : 0.398
Stream size                 : 16.8 GiB (64%)
Language                    : English
Default                     : Yes
Forced                      : No

Audio #1
ID                          : 2
Format                      : AC-3
Format/Info                 : Audio Coding 3
Commercial name             : Dolby Digital
Codec ID                    : A_AC3
Duration                    : 2 h 1 min
Bit rate mode               : Constant
Bit rate                    : 448 kb/s
Channel(s)                  : 6 channels
Channel layout              : L R C LFE Ls Rs
Sampling rate               : 48.0 kHz
Frame rate                  : 31.250 FPS (1536 SPF)
Bit depth                   : 16 bits
Compression mode            : Lossy
Stream size                 : 390 MiB (1%)
Title                       : Dub [License]
Language                    : Russian
Service kind                : Complete Main
Default                     : Yes
Forced                      : Yes

Audio #2
ID                          : 3
Format                      : AC-3
Format/Info                 : Audio Coding 3
Commercial name             : Dolby Digital
Codec ID                    : A_AC3
Duration                    : 2 h 1 min
Bit rate mode               : Constant
Bit rate                    : 192 kb/s
Channel(s)                  : 2 channels
Channel layout              : L R
Sampling rate               : 48.0 kHz
Frame rate                  : 31.250 FPS (1536 SPF)
Bit depth                   : 16 bits
Compression mode            : Lossy
Stream size                 : 167 MiB (1%)
Title                       : MVO [HDRezka Studio]
Language                    : Russian
Service kind                : Complete Main
Default                     : No
Forced                      : No

Audio #3
ID                          : 4
Format                      : AC-3
Format/Info                 : Audio Coding 3
Commercial name             : Dolby Digital
Codec ID                    : A_AC3
Duration                    : 2 h 1 min
Bit rate mode               : Constant
Bit rate                    : 640 kb/s
Channel(s)                  : 6 channels
Channel layout              : L R C LFE Ls Rs
Sampling rate               : 48.0 kHz
Frame rate                  : 31.250 FPS (1536 SPF)
Bit depth                   : 16 bits
Compression mode            : Lossy
Stream size                 : 558 MiB (2%)
Title                       : AVO [Chadov]
Language                    : Russian
Service kind                : Complete Main
Default                     : No
Forced                      : No

Audio #4
ID                          : 5
Format                      : DTS XLL
Format/Info                 : Digital Theater Systems
Commercial name             : DTS-HD Master Audio
Codec ID                    : A_DTS
Duration                    : 2 h 1 min
Bit rate mode               : Variable
Bit rate                    : 5 179 kb/s
Channel(s)                  : 8 channels
Channel layout              : C L R LFE Lb Rb Lss Rss
Sampling rate               : 48.0 kHz
Frame rate                  : 93.750 FPS (512 SPF)
Bit depth                   : 24 bits
Compression mode            : Lossless
Stream size                 : 4.41 GiB (17%)
Title                       : AVO [Chadov]
Language                    : Russian
Default                     : No
Forced                      : No

Audio #5
ID                          : 6
Format                      : MLP FBA 16-ch
Format/Info                 : Meridian Lossless Packing FBA with 16-channel presentation
Commercial name             : Dolby TrueHD with Dolby Atmos
Codec ID                    : A_TRUEHD
Duration                    : 2 h 1 min
Bit rate mode               : Variable
Bit rate                    : 3 819 kb/s
Maximum bit rate            : 7 158 kb/s
Channel(s)                  : 8 channels
Channel layout              : L R C LFE Ls Rs Lb Rb
Sampling rate               : 48.0 kHz
Frame rate                  : 1 200.000 FPS (40 SPF)
Compression mode            : Lossless
Stream size                 : 3.25 GiB (12%)
Title                       : Original
Language                    : English
Default                     : No
Forced                      : No
Number of dynamic objects   : 15
Bed channel count           : 1 channel
Bed channel configuration   : LFE

Audio #6
ID                          : 7
Format                      : AC-3
Format/Info                 : Audio Coding 3
Commercial name             : Dolby Digital
Codec ID                    : A_AC3
Duration                    : 2 h 1 min
Bit rate mode               : Constant
Bit rate                    : 640 kb/s
Channel(s)                  : 6 channels
Channel layout              : L R C LFE Ls Rs
Sampling rate               : 48.0 kHz
Frame rate                  : 31.250 FPS (1536 SPF)
Bit depth                   : 16 bits
Compression mode            : Lossy
Stream size                 : 558 MiB (2%)
Language                    : English
Service kind                : Complete Main
Default                     : No
Forced                      : No

Text #1
ID                          : 8
Format                      : UTF-8
Codec ID                    : S_TEXT/UTF8
Codec ID/Info               : UTF-8 Plain Text
Duration                    : 1 h 54 min
Bit rate                    : 5 b/s
Count of elements           : 72
Stream size                 : 4.41 KiB (0%)
Title                       : Forced [iTunes]
Language                    : Russian
Default                     : Yes
Forced                      : Yes

Text #2
ID                          : 9
Format                      : UTF-8
Codec ID                    : S_TEXT/UTF8
Codec ID/Info               : UTF-8 Plain Text
Duration                    : 1 h 57 min
Bit rate                    : 75 b/s
Count of elements           : 1108
Stream size                 : 64.8 KiB (0%)
Title                       : Full [iTunes]
Language                    : Russian
Default                     : No
Forced                      : No

Text #3
ID                          : 10
Format                      : UTF-8
Codec ID                    : S_TEXT/UTF8
Codec ID/Info               : UTF-8 Plain Text
Duration                    : 1 h 54 min
Bit rate                    : 8 b/s
Count of elements           : 101
Stream size                 : 7.51 KiB (0%)
Title                       : Forced [Enigma]
Language                    : Russian
Default                     : No
Forced                      : No

Text #4
ID                          : 11
Format                      : UTF-8
Codec ID                    : S_TEXT/UTF8
Codec ID/Info               : UTF-8 Plain Text
Duration                    : 1 h 55 min
Bit rate                    : 79 b/s
Count of elements           : 1221
Stream size                 : 67.5 KiB (0%)
Title                       : Full [Enigma]
Language                    : Russian
Default                     : No
Forced                      : No

Text #5
ID                          : 12
Format                      : UTF-8
Codec ID                    : S_TEXT/UTF8
Codec ID/Info               : UTF-8 Plain Text
Duration                    : 1 h 54 min
Bit rate                    : 44 b/s
Count of elements           : 1326
Stream size                 : 36.9 KiB (0%)
Title                       : Full
Language                    : English
Default                     : No
Forced                      : No

Text #6
ID                          : 13
Format                      : UTF-8
Codec ID                    : S_TEXT/UTF8
Codec ID/Info               : UTF-8 Plain Text
Duration                    : 1 h 58 min
Bit rate                    : 55 b/s
Count of elements           : 1735
Stream size                 : 47.9 KiB (0%)
Title                       : SDH
Language                    : English
Default                     : No
Forced                      : No

Menu
00:00:01.700                : en:Studio Logo
00:00:15.700                : en:Makeup
00:01:32.700                : en:Broken Sign
00:03:43.700                : en:Therapy
00:07:42.700                : en:Bus
00:09:15.700                : en:Meeting Murray
00:15:21.700                : en:Protection
00:19:13.700                : en:Enter Sophie
00:21:01.700                : en:Bath
00:23:34.700                : en:Following
00:24:53.700                : en:Comedy Scout
00:26:01.700                : en:Invite
00:27:59.700                : en:Hospital Gig
00:29:23.700                : en:Subway Scuffle
00:34:10.700                : en:Fleeing
00:36:14.700                : en:First Kiss
00:36:46.700                : en:Punching Out
00:38:14.700                : en:Wayne Interview
00:39:56.700                : en:Negative Thoughts
00:42:14.700                : en:Open Mic
00:45:15.700                : en:Date
00:46:21.700                : en:Letter to Wayne
00:50:23.700                : en:Clipping
00:51:12.700                : en:Wayne Manor
00:55:16.700                : en:Emergency
00:56:19.700                : en:Detectives
00:58:32.700                : en:Arthur on T.V.
01:01:01.700                : en:Protest Coverage
01:02:18.700                : en:Meeting Wayne
01:07:11.700                : en:Invitation
01:09:36.700                : en:Arkham
01:13:26.700                : en:Penny's File
01:15:41.700                : en:Sophie's Place
01:19:49.700                : en:Life's a Comedy
01:22:12.700                : en:Practice
01:24:28.700                : en:Randall and Gary visit Arthur
01:30:15.700                : en:Stairwell Waltz
01:34:51.700                : en:Dressing Room
01:37:02.700                : en:Arthur's Big Moment
01:46:35.700                : en:Riot
01:49:05.700                : en:Crime Alley
01:50:02.700                : en:Joker's Fans
01:52:33.700                : en:Thinking of a Joke
01:55:39.700                : en:End Credits



Скриншоты:
[+] Всего файлов в раздаче - 1:
Joker.2019.Lic.BDREMUX.1080p.seleZen.mkv26.19 GB

Показать еще раздачи по запросу джокер:
2020-01-21 U Джокер / Joker (2019) BDRip 720p от k.e.n & MegaPeer | D, P, A | Лицензия 5.59 GB ↑ 3 ↓ 44
2020-01-13 U Джокер / Joker (2019) BDRip от HQ-ViDEO | D | Лицензия 2.18 GB ↑ 38 ↓ 24
2020-01-08 U Джокер / Joker (2019) BDRip-AVC | Лицензия 748.91 MB ↑ 38 ↓ 5
2019-12-31 U Джокер / Joker (2019) BDRip 720p | D, P, A 5.13 GB ↑ 34 ↓ 10
2019-12-29 U Джокер / Joker (2019) BDRip 720p от Scarabey | Лицензия 4.75 GB ↑ 186 ↓ 26
2019-12-28 U Джокер / Joker (2019) BDRip-AVC от Generalfilm | Лицензия 1.64 GB ↑ 249 ↓ 76
2019-12-28 U Джокер / Joker (2019) HDRip от Scarabey | Лицензия 1.44 GB ↑ 248 ↓ 16

Отзывы
Зарегистрируйтесь чтобы добавить комментарий.
Обратная связь
Copyleft ©