↑↓torrent.by
Поиск
Логин: Регистрация
Пароль: Восстановить пароль

Джокер / Joker (2019) BDRip 1080p от qqss44 & MegaPeer | Лицензия

Скачать dzhoker-joker-2019-bdrip-1080p-ot-qqss44-megapeer-licenziya.torrent
U Магнитная ссылка Размер: 7.75 GB Раздают: 239 Качают: 289 Добавлен: 2019-12-28 17:49:34
Джокер / Joker (2019) BDRip 1080p от qqss44 & MegaPeer | Лицензия

Анонсы 1080p от qqss44

Информация о фильме
Название: Джокер
Оригинальное название: Joker
Год выпуска: 2019
Жанр: Триллер, драма, криминал
Режиссер: Тодд Филлипс
В ролях: Хоакин Феникс, Роберт Де Ниро, Зази Битц, Джоли Чань, Марк Мэрон, Фрэнсис Конрой, Мэри Кейт Малат, Ши Уигхэм, Брайан Коллен, Бретт Каллен, Билл Кэмп, Гленн Флешлер, Ли Гилл, Джош Пэйс

О фильме:
Готэм, начало 1980-х годов. Комик Артур Флек живет с больной матерью, которая с детства учит его «ходить с улыбкой». Пытаясь нести в мир хорошее и дарить людям радость, Артур сталкивается с человеческой жестокостью и постепенно приходит к выводу, что этот мир получит от него не добрую улыбку, а ухмылку злодея Джокера.

Страна: Канада, США
Студия: Warner Bros., Village Roadshow Pictures, DC Entertainment, DC Comics, 22 & Indiana Pictures
Продолжительность: 02:01:49
Перевод: Дублированный | Лицензия BD EUR

Файл
Формат: MKV, BDRip 1080p
Видео: MPEG-4 AVC, 8666 Кбит/с, 1920x1036
Aудио#1: [RUS] AC3 | 48 KHz | 5.1 (Front: L С R Side: L R) + LFE | ~448 kbps
Субтитры: русские форсированные и полные (отключаемые, srt)
Релиз от:

x264 [info]: frame P:36603 Avg QP:17.30 size: 80575
x264 [info]: frame B:137643 Avg QP:19.03 size: 34690


[+] МИ

Общее
Уникальный идентификатор: 230553500547793345869390113575707169596 (0xAD72FD324DD8805D881B62759B29533C)
Полное имя: H:Joker.(2019).BDRip-1080p.MegaPeer.(qqss44).mkv
Формат: Matroska
Версия формата: Version 2
Размер файла: 7,75 Гбайт
Продолжительность: 2 ч. 1 м.
Общий поток: 9110 Кбит/сек
Название фильма: Joker.(2019).BDRip-1080p.MegaPeer.(qqss44)
Дата кодирования: UTC 2019-12-28 12:34:08
Программа кодирования: mkvmerge v7.8.0 ('River Man') 32bit built on Apr 3 2015 12:11:22
Библиотека кодирования: libebml v1.3.1 + libmatroska v1.4.2

Видео
Идентификатор: 1
Формат: AVC
Формат/Информация: Advanced Video Codec
Профиль формата: High@L4.1
Параметр CABAC формата: Да
Параметр ReFrames формата: 4 кадра
Идентификатор кодека: V_MPEG4/ISO/AVC
Продолжительность: 2 ч. 1 м.
Битрейт: 8666 Кбит/сек
Ширина: 1920 пикселей
Высота: 1036 пикселей
Соотношение сторон: 1,85:1
Режим частоты кадров: Постоянный
Частота кадров: 23,976 (24000/1001) кадра/сек
Цветовое пространство: YUV
Субдискретизация насыщенности: 4:2:0
Битовая глубина: 8 бит
Тип развёртки: Прогрессивная
Бит/(Пиксели*Кадры): 0.182
Размер потока: 7,22 Гбайт (93%)
Библиотека кодирования: x264 core 152 r2851 ba24899
Настройки программы: cabac=1 / ref=4 / deblock=1:-3:-3 / analyse=0x3:0x113 / me=umh / subme=11 / psy=1 / psy_rd=1.00:0.00 / mixed_ref=1 / me_range=32 / chroma_me=1 / trellis=2 / 8x8dct=1 / cqm=0 / deadzone=21,11 / fast_pskip=0 / chroma_qp_offset=-2 / threads=12 / lookahead_threads=2 / sliced_threads=0 / nr=0 / decimate=0 / interlaced=0 / bluray_compat=0 / constrained_intra=0 / bframes=9 / b_pyramid=2 / b_adapt=2 / b_bias=0 / direct=3 / weightb=1 / open_gop=0 / weightp=2 / keyint=250 / keyint_min=23 / scenecut=40 / intra_refresh=0 / rc_lookahead=40 / rc=2pass / mbtree=0 / bitrate=8666 / ratetol=1.0 / qcomp=0.70 / qpmin=0 / qpmax=69 / qpstep=4 / cplxblur=20.0 / qblur=0.5 / vbv_maxrate=50000 / vbv_bufsize=62500 / nal_hrd=none / filler=0 / ip_ratio=1.40 / pb_ratio=1.30 / aq=3:0.90
Язык: English
Default: Да
Forced: Нет

Аудио
Идентификатор: 2
Формат: AC-3
Формат/Информация: Audio Coding 3
Расширение режима: CM (complete main)
Параметр Endianness формата: Big
Идентификатор кодека: A_AC3
Продолжительность: 2 ч. 1 м.
Вид битрейта: Постоянный
Битрейт: 448 Кбит/сек
Каналы: 6 каналов
Расположение каналов: Front: L C R, Side: L R, LFE
Частота: 48,0 КГц
Частота кадров: 31,250 кадров/сек (1536 spf)
Метод сжатия: С потерями
Размер потока: 390 Мбайт (5%)
Язык: Russian
Default: Да
Forced: Нет

Текст #1
Идентификатор: 3
Формат: UTF-8
Идентификатор кодека: S_TEXT/UTF8
Идентификатор кодека/Информация: UTF-8 Plain Text
Заголовок: FORCED
Язык: Russian
Default: Да
Forced: Нет

Текст #2
Идентификатор: 4
Формат: UTF-8
Идентификатор кодека: S_TEXT/UTF8
Идентификатор кодека/Информация: UTF-8 Plain Text
Заголовок: FULL
Язык: Russian
Default: Нет
Forced: Нет

Меню
00:00:01.700: en:Studio Logo
00:00:15.700: en:Makeup
00:01:32.700: en:Broken Sign
00:03:43.700: en:Therapy
00:07:42.700: en:Bus
00:09:15.700: en:Meeting Murray
00:15:21.700: en:Protection
00:19:13.700: en:Enter Sophie
00:21:01.700: en:Bath
00:23:34.700: en:Following
00:24:53.700: en:Comedy Scout
00:26:01.700: en:Invite
00:27:59.700: en:Hospital Gig
00:29:23.700: en:Subway Scuffle
00:34:10.700: en:Fleeing
00:36:14.700: en:First Kiss
00:36:46.700: en:Punching Out
00:38:14.700: en:Wayne Interview
00:39:56.700: en:Negative Thoughts
00:42:14.700: en:Open Mic
00:45:15.700: en:Date
00:46:21.700: en:Letter to Wayne
00:50:23.700: en:Clipping
00:51:12.700: en:Wayne Manor
00:55:16.700: en:Emergency
00:56:19.700: en:Detectives
00:58:32.700: en:Arthur on T.V.
01:01:01.700: en:Protest Coverage
01:02:18.700: en:Meeting Wayne
01:07:11.700: en:Invitation
01:09:36.700: en:Arkham
01:13:26.700: en:Penny's File
01:15:41.700: en:Sophie's Place
01:19:49.700: en:Life's a Comedy
01:22:12.700: en:Practice
01:24:28.700: en:Randall and Gary visit Arthur
01:30:15.700: en:Stairwell Waltz
01:34:51.700: en:Dressing Room
01:37:02.700: en:Arthur's Big Moment
01:46:35.700: en:Riot
01:49:05.700: en:Crime Alley
01:50:02.700: en:Joker's Fans
01:52:33.700: en:Thinking of a Joke
01:55:39.700: en:End Credits




Скриншоты:
[+] Всего файлов в раздаче - 1:
Joker.(2019).BDRip-1080p.MegaPeer.(qqss44).mkv7.75 GB

Показать еще раздачи по запросу джокер:
2020-01-21 U Джокер / Joker (2019) BDRip 720p от k.e.n & MegaPeer | D, P, A | Лицензия 5.59 GB ↑ 3 ↓ 44
2020-01-13 U Джокер / Joker (2019) BDRip от HQ-ViDEO | D | Лицензия 2.18 GB ↑ 38 ↓ 24
2020-01-08 U Джокер / Joker (2019) BDRip-AVC | Лицензия 748.91 MB ↑ 38 ↓ 5
2019-12-31 U Джокер / Joker (2019) BDRip 720p | D, P, A 5.13 GB ↑ 34 ↓ 10
2019-12-29 U Джокер / Joker (2019) BDRip 720p от Scarabey | Лицензия 4.75 GB ↑ 200 ↓ 26
2019-12-28 U Джокер / Joker (2019) BDRip-AVC от Generalfilm | Лицензия 1.64 GB ↑ 261 ↓ 75
2019-12-28 U Джокер / Joker (2019) HDRip от Scarabey | Лицензия 1.44 GB ↑ 256 ↓ 16

Отзывы
Зарегистрируйтесь чтобы добавить комментарий.
Обратная связь
Copyleft ©