↑↓torrent.by
Поиск
Логин: Регистрация
Пароль: Восстановить пароль

Тайны кельтских гробниц / Mystery of the Celtic Tomb (2018) DVB | P1

Скачать tayny-keltskih-grobnic-mystery-of-the-celtic-tomb-2018-dvb-p1.torrent
U Магнитная ссылка Размер: 1.04 GB Раздают: 113 Качают: 12 Добавлен: 2019-12-29 03:15:37
Тайны кельтских гробниц / Mystery of the Celtic Tomb (2018) DVB | P1

Название: Тайны кельтских гробниц
Оригинальное название: Mystery of the Celtic Tomb
Год выхода: 2018
Жанр: Документальный, история, археология
Режиссер: Клаус Т. Штайндль

О фильме:
Глубоко в Альпах хранится тайна. Ее возраст – несколько тысяч лет. В окружении могучих вершин и снегов люди обрели одно из самых ценных сокровищ на земле и создали удивительную культуру в центре Европы. Своим успехом они были обязаны одному волшебному ингредиенту – соли, которую они добывали в очень сложной сети подземных туннелей. Сегодня соляные шахты дают археологам много информации о повседневной жизни людей, обитавших здесь три тысячи назад. В долине возле шахт находится огромное захоронение. Оно считается одним из крупнейших в мире. Более четырех тысяч могил хранят следы загадочных ритуалов и древнего искусства. Украшения, ткани и остатки пищи: ученые нашли так много артефактов, но ни одного жилища. Возможно, сейчас ситуация изменится.
С помощью новейших технологий и современных методов ученые анализируют древние предметы и воссоздают доисторический мир в мельчайших подробностях.

Страна: Германия
Студия: Terra Mater Factual Studios
Продолжительность: 00:49:49
Перевод: Профессиональный (одноголосый закадровый) СВ-Дубль

Файл
Кодек: AVC/H.264
Качество: DVB
Видео: 720x576@1047x576 (16:9) AVC (H.264) Main@L3.0, ~ 2740 kbps, 25fps
Звук: Русский 48 kHz, MPEG Layer 2, 2 ch, ~192.00 kbps avg
Субтитры: Русские, отключаемые

Семпл

Релиз от: kyba
[+] MediaInfo
Complete name               : F:НаладкиSD-фильмыТайны кельтских гробниц.mkv
Format                      : Matroska
Format version              : Version 4
File size                   : 1.04 GiB
Duration                    : 49 min 49 s
Overall bit rate            : 2 992 kb/s
Encoded date                : UTC 2019-09-16 16:30:26
Writing application         : mkvmerge v6.6.0 ('The Edge Of The In Between') built on Dec  1 2013 17:55:00
Writing library             : libebml v1.3.0 + libmatroska v1.4.1

Video
ID                          : 1
Format                      : AVC
Format/Info                 : Advanced Video Codec
Format profile              : Main@L3
Format settings             : CABAC / 4 Ref Frames
Format settings, CABAC      : Yes
Format settings, Reference  : 4 frames
Codec ID                    : V_MPEG4/ISO/AVC
Duration                    : 49 min 49 s
Bit rate                    : 2 740 kb/s
Width                       : 720 pixels
Height                      : 576 pixels
Display aspect ratio        : 16:9
Frame rate mode             : Constant
Frame rate                  : 25.000 FPS
Standard                    : Component
Color space                 : YUV
Chroma subsampling          : 4:2:0
Bit depth                   : 8 bits
Scan type                   : Interlaced
Scan type, store method     : Separated fields
Scan order                  : Top Field First
Bits/(Pixel*Frame)          : 0.264
Stream size                 : 977 MiB (92%)
Default                     : Yes
Forced                      : No
Color range                 : Limited
Color primaries             : BT.601 PAL
Transfer characteristics    : BT.470 System B/G
Matrix coefficients         : BT.470 System B/G

Audio
ID                          : 2
Format                      : MPEG Audio
Format version              : Version 1
Format profile              : Layer 2
Codec ID                    : A_MPEG/L2
Codec ID/Hint               : MP2
Duration                    : 49 min 49 s
Bit rate mode               : Constant
Bit rate                    : 192 kb/s
Channel(s)                  : 2 channels
Sampling rate               : 48.0 kHz
Compression mode            : Lossy
Stream size                 : 68.4 MiB (6%)
Language                    : Russian
Default                     : Yes
Forced                      : No

Text
ID                          : 3
Format                      : UTF-8
Codec ID                    : S_TEXT/UTF8
Codec ID/Info               : UTF-8 Plain Text
Language                    : Russian
Default                     : No
Forced                      : No



Скриншоты:
[+] Всего файлов в раздаче - 1:
Тайны кельтских гробниц.mkv1.04 GB

Показать еще раздачи по запросу тайны:
2020-04-07 U Улика из прошлого. Тайны тела Ленина: рассекреченные архивы (2020) SATRip 513.02 MB ↑ 120 ↓ 31
2020-04-05 U Засекреченные списки. Страшные тайны земли (2020) SATRip 1.27 GB ↑ 68 ↓ 15
2020-03-07 U Московские тайны. Тринадцатое колено [01-02 из 02] (2019) WEB-DLRip от Files-x 1.17 GB ↑ 87 ↓ 32
2020-02-16 U Засекреченные списки. Самые страшные тайны (2020) SATRip 1.21 GB ↑ 46 ↓ 21
2020-01-13 U Загадки века. Тайны Чёрного ордена (2020) SATRip 535.46 MB ↑ 61 ↓ 35
2019-10-13 U Московские тайны. Проклятие Мастера [S05] (2019) WEB-DLRip от Files-x 1.12 GB ↑ 183 ↓ 30
2019-09-24 U Тайны кино. Михаил Боярский (2019) WEBRip 549.22 MB ↑ 257 ↓ 8

Отзывы
Зарегистрируйтесь чтобы добавить комментарий.
Обратная связь
Copyleft ©