↑↓torrent.by
Поиск
Логин: Регистрация
Пароль: Восстановить пароль

Мандалорец / The Mandalorian [S01] (2019) WEB-DLRip от OlLanDGroup | Lostfilm

Скачать mandalorec-the-mandalorian-s01-2019-web-dlrip-ot-ollandgroup-lostfilm.torrent
U Магнитная ссылка Размер: 5.78 GB Раздают: 110 Качают: 929 Добавлен: 2019-12-30 20:52:19
Мандалорец / The Mandalorian [S01] (2019) WEB-DLRip от OlLanDGroup | Lostfilm

Информация о сериале
Название: Мандалорец
Оригинальное название: The Mandalorian
Год выхода: 2019
Жанр: фантастика, боевик, приключения

Режиссер: Дебора Чоу, Рик Фамуйива, Дэйв Филони, Брайс Даллас Ховард, Тайка Вайтити
В ролях: Педро Паскаль, Кайл Пацек, Брендан Уэйн, Бернард Баллен, Александра Гилман, Луис Ричард Гомес, Джамал Антар, Тейт Флетчер, Тони Табоада, Омид Абтахи, Джина Карано, Джанкарло Эспозито, Вернер Херцог, Джулия Джонс, Ник Нолти, Тайка Вайтити, Карл Уэзерс, Марк Бун Джуниор, Билл Бёрр, Доминик Паке, Гари Зиверс, Эмили Суоллоу, Наталия Тена, Минг-На, Джуд С. Уоко

О сериале: Одинокий мандалорец-наёмник живёт на краю обитаемой галактики, куда не дотягивается закон Новой Республики. Представитель некогда могучей расы благородных воинов теперь вынужден влачить жалкое существование среди отбросов общества.

Страна: США
Студия: Lucasfilm, Walt Disney Studios
Продолжительность: ~ 00:38:00 - серия
Перевод: Профессиональный (многоголосый, закадровый) | Lostfilm

Файл
Кодек: XviD
Качество: WEB-DLRip
Видео: 720x304 (2.37:1), 23.976 fps, XviD build 73 ~1999 kbps avg, 0.38 bit/pixel
Аудио#1: 48 kHz, AC3 Dolby Digital, 3/2 (L,C,R,l,r) + LFE ch, ~384.00 kbps avg | RUS | Lostfilm
Аудио#2: 48 kHz, AC3 Dolby Digital, 3/2 (L,C,R,l,r) + LFE ch, ~384.00 kbps avg | ENG | Original
Субтитры: Русские (Forced), английские - отдельно

*** Реклама отсутствует

**** Сэмпл: http://sendfile.su/1529305

Релиз:


[+] Список серий
01. Chapter 1 / Глава 1
02. Chapter 2: The Child / Глава 2: Дитя
03. Chapter 3: The Sin / Глава 3: Грех
04. Chapter 4: Sanctuary / Глава 4: Убежище
05. Chapter 5: The Gunslinger / Глава 5: Стрелок
06. Chapter 6: The Prisoner / Глава 6: Пленник
07. Chapter 7: The Reckoning / Глава 7: Возмездие
08. Chapter 8: Redemption / Глава 8: Искупление



[+] MediaInfo:
General
Complete name: D:OlLanDGroupThe.Mandalorian.S01.WEB-DLRip.RUS.ENG.LF.DDP5.1-OlLanDGroupThe.Mandalorian.S01E01.WEB-DLRip.RUS.ENG.LF.DDP5.1-OlLanDGroup.avi
Format: AVI
Format/Info: Audio Video Interleave
File size: 767 MiB
Duration: 38 min 46 s
Overall bit rate: 2 766 kb/s
Writing application: VirtualDubMod 1.5.10.2 (build 2540/release)
Writing library: VirtualDubMod build 2540/release

Video
ID: 0
Format: MPEG-4 Visual
Format profile: Advanced Simple@L5
Format settings: BVOP1
Format settings, BVOP: 1
Format settings, QPel: No
Format settings, GMC: No warppoints
Format settings, Matrix: Default (MPEG)
Codec ID: XVID
Codec ID/Hint: XviD
Duration: 38 min 46 s
Bit rate: 1 999 kb/s
Width: 720 pixels
Height: 304 pixels
Display aspect ratio: 2.35:1
Frame rate: 23.976 (24000/1001) FPS
Color space: YUV
Chroma subsampling: 4:2:0
Bit depth: 8 bits
Scan type: Progressive
Compression mode: Lossy
Bits/(Pixel*Frame): 0.378
Stream size: 550 MiB (72%)
Writing library: XviD 73

Audio #1
ID: 1
Format: AC-3
Format/Info: Audio Coding 3
Commercial name: Dolby Digital
Codec ID: 2000
Duration: 38 min 46 s
Bit rate mode: Constant
Bit rate: 384 kb/s
Channel(s): 6 channels
Channel layout: L R C LFE Ls Rs
Sampling rate: 48.0 kHz
Frame rate: 31.250 FPS (1536 SPF)
Bit depth: 16 bits
Compression mode: Lossy
Stream size: 106 MiB (14%)
Alignment: Split accross interleaves
Interleave, duration: 42 ms (1.00 video frame)
Interleave, preload duration: 500 ms
Service kind: Complete Main

Audio #2
ID: 2
Format: AC-3
Format/Info: Audio Coding 3
Commercial name: Dolby Digital
Codec ID: 2000
Duration: 38 min 46 s
Bit rate mode: Constant
Bit rate: 384 kb/s
Channel(s): 6 channels
Channel layout: L R C LFE Ls Rs
Sampling rate: 48.0 kHz
Frame rate: 31.250 FPS (1536 SPF)
Bit depth: 16 bits
Compression mode: Lossy
Stream size: 106 MiB (14%)
Alignment: Split accross interleaves
Interleave, duration: 42 ms (1.00 video frame)
Interleave, preload duration: 500 ms
Service kind: Complete Main



Скриншоты:
[+] Всего файлов в раздаче - 19:
ENG/The.Mandalorian.S01E01.WEB-DLRip.RUS.ENG.LF.DDP5.1-OlLanDGroup.srt18.78 kB
ENG/The.Mandalorian.S01E02.WEB-DLRip.RUS.ENG.LF.DDP5.1-OlLanDGroup.srt11.79 kB
ENG/The.Mandalorian.S01E03.WEB-DLRip.RUS.ENG.LF.DDP5.1-OlLanDGroup.srt19.21 kB
ENG/The.Mandalorian.S01E04.WEB-DLRip.RUS.ENG.LF.DDP5.1-OlLanDGroup.srt28.74 kB
ENG/The.Mandalorian.S01E05.WEB-DLRip.RUS.ENG.LF.DDP5.1-OlLanDGroup.srt25.00 kB
ENG/The.Mandalorian.S01E06.WEB-DLRip.RUS.ENG.LF.DDP5.1-OlLanDGroup.srt31.47 kB
ENG/The.Mandalorian.S01E07.WEB-DLRip.RUS.ENG.LF.DDP5.1-OlLanDGroup.srt32.60 kB
ENG/The.Mandalorian.S01E08.WEB-DLRip.RUS.ENG.LF.DDP5.1-OlLanDGroup.srt39.76 kB
RUS/The.Mandalorian.S01E01.WEB-DLRip.RUS.ENG.LF.DDP5.1-OlLanDGroup.srt25.14 kB
RUS/The.Mandalorian.S01E02.WEB-DLRip.RUS.ENG.LF.DDP5.1-OlLanDGroup.srt7.52 kB
RUS/The.Mandalorian.S01E03.WEB-DLRip.RUS.ENG.LF.DDP5.1-OlLanDGroup.srt100.00 B
The.Mandalorian.S01E01.WEB-DLRip.RUS.ENG.LF.DDP5.1-OlLanDGroup.avi767.09 MB
The.Mandalorian.S01E02.WEB-DLRip.RUS.ENG.LF.DDP5.1-OlLanDGroup.avi600.66 MB
The.Mandalorian.S01E03.WEB-DLRip.RUS.ENG.LF.DDP5.1-OlLanDGroup.avi635.25 MB
The.Mandalorian.S01E04.WEB-DLRip.RUS.ENG.LF.DDP5.1-OlLanDGroup.avi834.08 MB
The.Mandalorian.S01E05.WEB-DLRip.RUS.ENG.LF.DDP5.1-OlLanDGroup.avi598.97 MB
The.Mandalorian.S01E06.WEB-DLRip.RUS.ENG.LF.DDP5.1-OlLanDGroup.avi851.41 MB
The.Mandalorian.S01E07.WEB-DLRip.RUS.ENG.LF.DDP5.1-OlLanDGroup.avi735.31 MB
The.Mandalorian.S01E08.WEB-DLRip.RUS.ENG.LF.DDP5.1-OlLanDGroup.avi895.38 MB

Показать еще раздачи по запросу мандалорец:
2020-01-14 U Мандалорец / The Mandalorian [S01] (2019) WEB-DLRip-AVC | AlexFilm, LostFilm 7.80 GB ↑ 34 ↓ 42
2019-12-31 U Мандалорец / The Mandalorian [S01] (2019) WEB-DL 720p | LostFilm 12.06 GB ↑ 123 ↓ 102
2019-12-30 U Мандалорец / The Mandalorian [S01] (2019) WEB-DLRip | LostFilm 4.18 GB ↑ 287 ↓ 92
2019-12-30 U Мандалорец / The Mandalorian [S01] (2019) WEB-DL 1080p | LostFilm 23.09 GB ↑ 199 ↓ 573
2019-12-29 U Мандалорец / The Mandalorian [S01] (2019) WEB-DLRip от Scarabey | AlexFilm 4.48 GB ↑ 122 ↓ 108
2019-12-28 U Мандалорец / The Mandalorian [S01] (2019) WEB-DL 1080p от Scarabey | AlexFilm 19.26 GB ↑ 107 ↓ 752
2019-11-30 U Мандалорец / The Mandalorian [01x01-04 из 08] (2019) WEB-DLRip | AlexFilm 2.04 GB ↑ 1273 ↓ 236

Отзывы
mikeshanchuk
Спасибо за раздачу! Вменяемый размер, приличное качество, хороший перевод и без рекламы!

Зарегистрируйтесь чтобы добавить комментарий.
Обратная связь
Copyleft ©