↑↓torrent.by
Поиск
Логин: Регистрация
Пароль: Восстановить пароль

КВН-2019. Высшая лига. Финал [30.12] (2019) HDTVRip от GeneralFilm

Скачать kvn-2019-vysshaya-liga-final-30-12-hdtvrip-ot-generalfilm.torrent
U Магнитная ссылка Размер: 2.05 GB Раздают: 143 Качают: 63 Добавлен: 2019-12-31 04:01:31
КВН-2019. Высшая лига. Финал  [30.12] (2019) HDTVRip от GeneralFilm

Год выпуска: 2019
Жанр:  Юмор
Выпущено: Россия, АМИК, Первый канал
Ведущий: Александр Масляков

О фильме: Что такое КВН - знают, без сомнения, все. В КВН играют во всем мире, это прежде всего молодежная игра. Постоянные конкурсные задания - "Визитная карточка", "Разминка", "Конкурс капитанов", "Музыкальный конкурс", "Домашнее задание". Игру команд оценивает профессиональное жюри - люди, у которых с чувством юмора все в порядке, многие из них раньше сами играли в КВН. Среди членов жюри были Константин Эрнст, Леонид Парфенов, Юлий Гусман, Леонид Ярмольник, Валдис Пельш, Сергей Шолохов, Геннадий Хазанов и другие. Кроме самих игр проводятся ежегодные встречи: фестиваль команд КВН (с 1990 г., семь раз фестиваль проходил в г.Сочи), музыкальный фестиваль КВН, летний кубок КВН, международные товарищеские игры в КВН. Сборная КВН играет со сборными других стран. Уже состоялись игры между сборной КВН и сборными Америки, Австралии, Израиля... Игра в КВН для многих становится профессией, а многие благодаря игре связывают жизнь с искусством. Из КВН "вышли": Леонид Якубович, Михаил Марфин, Татьяна Лазарева, Олег Филимонов, Юлий Гусман и многие другие.

Качество: HDTVRip
Видео: XviD, 1799 Кбит/с, 720х400, 25 кадр/с
Аудио: Русский (AC3, 2 ch, 192 Кбит/с)
Продолжительность: 02:26:20
Перевод: Не требуется
Субтитры: нет

Релиз:
[+] MediaInfo

Общее
Полное имя                               : D:KVN-2019. Vysshaja liga.Final.HDTVRip.GeneralFilm.avi
Формат                                   : AVI
Формат/Информация                        : Audio Video Interleave
Профиль формата                          : OpenDML
Размер файла                             : 2,05 Гбайт
Продолжительность                        : 2 ч. 26 м.
Общий поток                              : 2004 Кбит/сек
Программа кодирования                    : VirtualDubMod 1.5.10.3 | www.virtualdub-fr.org || (build 2550/release)
Библиотека кодирования                   : VirtualDubMod build 2550/release

Видео
Идентификатор                            : 0
Формат                                   : MPEG-4 Visual
Профиль формата                          : Advanced Simple@L5
Параметр BVOP формата                    : 1
Параметр QPel формата                    : Нет
Параметр GMC формата                     : Без точки перехода
Параметр матрицы формата                 : Выборочная
Идентификатор кодека                     : XVID
Идентификатор кодека/Подсказка           : XviD
Продолжительность                        : 2 ч. 26 м.
Битрейт                                  : 1799 Кбит/сек
Ширина                                   : 720 пикселей
Высота                                   : 400 пикселей
Соотношение сторон                       : 16:9
Частота кадров                           : 25,000 кадров/сек
Цветовое пространство                    : YUV
Субдискретизация насыщенности            : 4:2:0
Битовая глубина                          : 8 бит
Тип развёртки                            : Прогрессивная
Метод сжатия                             : С потерями
Бит/(Пиксели*Кадры)                      : 0.250
Размер потока                            : 1,84 Гбайт (90%)
Библиотека кодирования                   : XviD 1.2.1 (UTC 2008-12-04)

Аудио
Идентификатор                            : 1
Формат                                   : AC-3
Формат/Информация                        : Audio Coding 3
Расширение режима                        : CM (complete main)
Параметр Endianness формата              : Big
Идентификатор кодека                     : 2000
Продолжительность                        : 2 ч. 26 м.
Вид битрейта                             : Постоянный
Битрейт                                  : 192 Кбит/сек
Каналы                                   : 2 канала
Расположение каналов                     : Front: L R
Частота                                  : 48,0 КГц
Битовая глубина                          : 16 бит
Метод сжатия                             : С потерями
Размер потока                            : 201 Мбайт (10%)
Выравнивание                             : Разделение по промежуткам
Продолжительность промежутка             : 40  мс. (1,00 видеокадр)
Время предзагрузки промежутка            : 500  мс.




[+] Команды

«Так-то» (СФУ, Красноярск), Сборная «Татнефти» (Альметьевск), «Наполеон Динамит» (Тюменская область), «Борцы. Северный десант» (Сургут), Сборная Снежногорска (Снежногорск).



[+] Жюри

Константин Эрнст, Юлий Гусман, Михаил Галустян, Вячеслав Муругов, Валдис Пельш, Татьяна Навка и Дмитрий Нагиев.



Скриншоты:
[+] Всего файлов в раздаче - 1:
KVN-2019. Vysshaja liga.Final.HDTVRip.GeneralFilm.avi2.05 GB

Показать еще раздачи по запросу высшая:
2020-03-29 U КВН-2020. Высшая лига. 1/8 финала. Игра пятая [28.03] (2020) WEB-DL 1080p 2.08 GB ↑ 157 ↓ 53
2020-03-28 U КВН-2020. Высшая лига. 1/8 финала. Игра пятая [28.03] (2020) SATRip 1.23 GB ↑ 1229 ↓ 311
2020-03-09 U КВН-2020. Высшая лига [01-03] (2020) WEB-DL 1080p от Files-x 9.12 GB ↑ 136 ↓ 443
2020-02-23 U КВН-2020. Высшая лига [01-02] (2020) WEB-DLRip от Files-x 2.57 GB ↑ 300 ↓ 39
2020-02-23 U КВН-2020. Высшая лига [01-02] (2020) WEB-DL 1080p от Files-x 6.02 GB ↑ 106 ↓ 339
2020-02-16 U КВН-2020. Высшая лига [01] (2020) WEB-DLRip от Files-x 1.26 GB ↑ 197 ↓ 76
2019-10-12 U КВН-2019. Высшая лига. 1/2 финала. Игра первая [12.10] (2019) SATRip 1.48 GB ↑ 251 ↓ 223

Отзывы
Зарегистрируйтесь чтобы добавить комментарий.
Обратная связь
Copyleft ©