↑↓torrent.by
Поиск
Логин: Регистрация
Пароль: Восстановить пароль

Джокер / Joker (2019) BDRip 720p | D, P, A

Скачать dzhoker-joker-2019-bdrip-720p-d-p-a.torrent
U Магнитная ссылка Размер: 5.13 GB Раздают: 34 Качают: 10 Добавлен: 2019-12-31 04:02:42
Джокер / Joker (2019) BDRip 720p | D, P, A

Название: Джокер
Оригинальное название: Joker
Год выхода: 2019
Жанр: триллер, драма, криминал
Режиссер: Тодд Филлипс
В ролях: Хоакин Феникс, Роберт Де Ниро, Зази Битц, Фрэнсис Конрой, Бретт Каллен, Шей Уигэм, Билл Кэмп, Гленн Флешлер, Ли Гилл, Джош Пэйс

О фильме:
Готэм, начало 1980-х годов. Комик Артур Флек живет с больной матерью, которая с детства учит его «ходить с улыбкой». Пытаясь нести в мир хорошее и дарить людям радость, Артур сталкивается с человеческой жестокостью и постепенно приходит к выводу, что этот мир получит от него не добрую улыбку, а ухмылку злодея Джокера.

 
Страна: США, Канада
Студия: 22 & Indiana Pictures, Bron Studios, Creative Wealth Media Finance, DC Comics, DC Entertainment, Village Roadshow Pictures, Warner Bros.
Продолжительность: 02:01:49
Перевод: Профессиональный (полное дублирование) Blu-ray CEE, профессиональный (многоголосый, закадровый) HDRezka Studio, авторский (одноголосый, закадровый) М.Чадов

Файл
Кодек: x264
Качество: BDRip 720p [Joker.2019.1080p.BluRay.REMUX.AVC.DTS-HD.MA.TrueHD.7.1.Atmos-FGT]
Видео: 1280x690 (1.85:1), 23.976fps, MPEG-4 AVC, 4237 kbps, 0.200 bit/pixel
Аудио#1: AC3, 48 KHz, 6ch, 448 kbps - DUB, Blu-ray CEE [rus]
Аудио#2: AC3, 48 KHz, 6ch, 448 kbps - MVO, HDRezka Studio [rus]
Аудио#3: AC3, 48 KHz, 6ch, 448 kbps - AVO, М.Чадов [rus]
Аудио#4: AC3, 48 KHz, 6ch, 448 kbps - Original [eng]
Субтитры: Русские, английские



[+] MediaInfo
General
Unique ID                      : 309311694355110236432811008814211331602 (0xE8B343F3454AF534FB893CDC5306F612)
Complete name                  : Джокер - Joker (2019) BDRip 720p.mkv
Format                         : Matroska
Format version                 : Version 4 / Version 2
File size                      : 5.13 GiB
Duration                       : 2 h 1 min
Overall bit rate               : 6 030 kb/s
Movie name                     : Joker (2019)
Encoded date                   : UTC 2019-12-29 13:12:35
Writing application            : mkvmerge v41.0.0 ('Smarra') 64-bit
Writing library                : libebml v1.3.9 + libmatroska v1.5.2

Video
ID                             : 1
Format                         : AVC
Format/Info                    : Advanced Video Codec
Format profile                 : High@L4.1
Format settings, CABAC         : Yes
Format settings, RefFrames     : 9 frames
Codec ID                       : V_MPEG4/ISO/AVC
Duration                       : 2 h 1 min
Bit rate                       : 4 237 kb/s
Width                          : 1 280 pixels
Height                         : 690 pixels
Display aspect ratio           : 1.85:1
Frame rate mode                : Constant
Frame rate                     : 23.976 (24000/1001) FPS
Color space                    : YUV
Chroma subsampling             : 4:2:0
Bit depth                      : 8 bits
Scan type                      : Progressive
Bits/(Pixel*Frame)             : 0.200
Stream size                    : 3.60 GiB (70%)
Writing library                : x264 core 157 r2935 545de2f
Encoding settings              : cabac=1 / ref=9 / deblock=1:-3:-3 / analyse=0x3:0x113 / me=umh / subme=11 / psy=1 / psy_rd=1.00:0.00 / mixed_ref=1 / me_range=32 / chroma_me=1 / trellis=2 / 8x8dct=1 / cqm=0 / deadzone=21,11 /

fast_pskip=1 / chroma_qp_offset=-4 / threads=6 / lookahead_threads=1 / sliced_threads=0 / nr=0 / decimate=1 / interlaced=0 / bluray_compat=0 / constrained_intra=0 / bframes=13 / b_pyramid=2 / b_adapt=2 / b_bias=0 / direct=1 / weightb=1

/ open_gop=0 / weightp=2 / keyint=240 / keyint_min=23 / scenecut=40 / intra_refresh=0 / rc_lookahead=60 / rc=2pass / mbtree=1 / bitrate=4237 / ratetol=1.0 / qcomp=0.60 / qpmin=0 / qpmax=69 / qpstep=4 / cplxblur=20.0 / qblur=0.5 /

vbv_maxrate=50000 / vbv_bufsize=62500 / nal_hrd=none / filler=0 / ip_ratio=1.40 / aq=1:0.90
Language                       : English
Default                        : Yes
Forced                         : No

Audio #1
ID                             : 2
Format                         : AC-3
Format/Info                    : Audio Coding 3
Format settings, Endianness    : Big
Codec ID                       : A_AC3
Duration                       : 2 h 1 min
Bit rate mode                  : Constant
Bit rate                       : 448 kb/s
Channel(s)                     : 6 channels
Channel positions              : Front: L C R, Side: L R, LFE
Sampling rate                  : 48.0 kHz
Frame rate                     : 31.250 FPS (1536 SPF)
Bit depth                      : 16 bits
Compression mode               : Lossy
Stream size                    : 390 MiB (7%)
Title                          : DUB - Blu-ray CEE
Language                       : Russian
Service kind                   : Complete Main
Default                        : Yes
Forced                         : No

Audio #2
ID                             : 3
Format                         : AC-3
Format/Info                    : Audio Coding 3
Format settings, Endianness    : Big
Codec ID                       : A_AC3
Duration                       : 2 h 1 min
Bit rate mode                  : Constant
Bit rate                       : 448 kb/s
Channel(s)                     : 6 channels
Channel positions              : Front: L C R, Side: L R, LFE
Sampling rate                  : 48.0 kHz
Frame rate                     : 31.250 FPS (1536 SPF)
Bit depth                      : 16 bits
Compression mode               : Lossy
Stream size                    : 390 MiB (7%)
Title                          : MVO - HDRezka Studio
Language                       : Russian
Service kind                   : Complete Main
Default                        : No
Forced                         : No

Audio #3
ID                             : 4
Format                         : AC-3
Format/Info                    : Audio Coding 3
Format settings, Endianness    : Big
Codec ID                       : A_AC3
Duration                       : 2 h 1 min
Bit rate mode                  : Constant
Bit rate                       : 448 kb/s
Channel(s)                     : 6 channels
Channel positions              : Front: L C R, Side: L R, LFE
Sampling rate                  : 48.0 kHz
Frame rate                     : 31.250 FPS (1536 SPF)
Bit depth                      : 16 bits
Compression mode               : Lossy
Stream size                    : 390 MiB (7%)
Title                          : AVO - М.Чадов
Language                       : Russian
Service kind                   : Complete Main
Default                        : No
Forced                         : No

Audio #4
ID                             : 5
Format                         : AC-3
Format/Info                    : Audio Coding 3
Format settings, Endianness    : Big
Codec ID                       : A_AC3
Duration                       : 2 h 1 min
Bit rate mode                  : Constant
Bit rate                       : 448 kb/s
Channel(s)                     : 6 channels
Channel positions              : Front: L C R, Side: L R, LFE
Sampling rate                  : 48.0 kHz
Frame rate                     : 31.250 FPS (1536 SPF)
Bit depth                      : 16 bits
Compression mode               : Lossy
Stream size                    : 390 MiB (7%)
Title                          : Original
Language                       : English
Service kind                   : Complete Main
Default                        : No
Forced                         : No

Text #1
ID                             : 6
Format                         : UTF-8
Codec ID                       : S_TEXT/UTF8
Codec ID/Info                  : UTF-8 Plain Text
Duration                       : 1 h 54 min
Bit rate                       : 5 b/s
Count of elements              : 72
Stream size                    : 4.41 KiB (0%)
Title                          : Forced [Blu-ray CEE]
Language                       : Russian
Default                        : Yes
Forced                         : Yes

Text #2
ID                             : 7
Format                         : UTF-8
Codec ID                       : S_TEXT/UTF8
Codec ID/Info                  : UTF-8 Plain Text
Duration                       : 1 h 54 min
Bit rate                       : 8 b/s
Count of elements              : 101
Stream size                    : 7.51 KiB (0%)
Title                          : Forced [Enigma]
Language                       : Russian
Default                        : No
Forced                         : No

Text #3
ID                             : 8
Format                         : UTF-8
Codec ID                       : S_TEXT/UTF8
Codec ID/Info                  : UTF-8 Plain Text
Duration                       : 1 h 57 min
Bit rate                       : 75 b/s
Count of elements              : 1108
Stream size                    : 64.8 KiB (0%)
Title                          : Full
Language                       : Russian
Default                        : No
Forced                         : No

Text #4
ID                             : 9
Format                         : UTF-8
Codec ID                       : S_TEXT/UTF8
Codec ID/Info                  : UTF-8 Plain Text
Duration                       : 1 h 54 min
Bit rate                       : 44 b/s
Count of elements              : 1326
Stream size                    : 36.9 KiB (0%)
Title                          : Full
Language                       : English
Default                        : No
Forced                         : No

Text #5
ID                             : 10
Format                         : UTF-8
Codec ID                       : S_TEXT/UTF8
Codec ID/Info                  : UTF-8 Plain Text
Duration                       : 1 h 58 min
Bit rate                       : 55 b/s
Count of elements              : 1735
Stream size                    : 47.9 KiB (0%)
Title                          : SDH
Language                       : English
Default                        : No
Forced                         : No

Menu
00:00:00.000                   : en:Chapter 01
00:10:28.794                   : en:Chapter 02
00:21:01.301                   : en:Chapter 03
00:28:44.973                   : en:Chapter 04
00:38:14.500                   : en:Chapter 05
00:46:21.570                   : en:Chapter 06
00:56:19.292                   : en:Chapter 07
01:04:41.168                   : en:Chapter 08
01:15:41.745                   : en:Chapter 09
01:26:16.045                   : en:Chapter 10
01:37:02.608                   : en:Chapter 11
01:45:50.385                   : en:Chapter 12
01:55:44.646                   : en:Chapter 13



Скриншоты:
[+] Всего файлов в раздаче - 1:
Джокер - Joker (2019) BDRip 720p.mkv5.13 GB

Показать еще раздачи по запросу джокер:
2020-01-21 U Джокер / Joker (2019) BDRip 720p от k.e.n & MegaPeer | D, P, A | Лицензия 5.59 GB ↑ 3 ↓ 44
2020-01-13 U Джокер / Joker (2019) BDRip от HQ-ViDEO | D | Лицензия 2.18 GB ↑ 38 ↓ 24
2020-01-08 U Джокер / Joker (2019) BDRip-AVC | Лицензия 748.91 MB ↑ 38 ↓ 5
2019-12-29 U Джокер / Joker (2019) BDRip 720p от Scarabey | Лицензия 4.75 GB ↑ 200 ↓ 26
2019-12-28 U Джокер / Joker (2019) BDRip-AVC от Generalfilm | Лицензия 1.64 GB ↑ 261 ↓ 75
2019-12-28 U Джокер / Joker (2019) HDRip от Scarabey | Лицензия 1.44 GB ↑ 256 ↓ 16
2019-12-28 U Джокер / Joker (2019) BDRip 1080p от qqss44 & MegaPeer | Лицензия 7.75 GB ↑ 239 ↓ 289

Отзывы
Зарегистрируйтесь чтобы добавить комментарий.
Обратная связь
Copyleft ©