↑↓torrent.by
Поиск
Логин: Регистрация
Пароль: Восстановить пароль

Эдуард Суровый. Слёзы Брайтона (2019) HDTV 1080p от Generalfilm

Скачать eduard-surovyy-slezy-braytona-2019-hdtv-1080p-ot-generalfilm.torrent
U Магнитная ссылка Размер: 3.02 GB Раздают: 664 Качают: 153 Добавлен: 2019-12-31 18:08:37
Эдуард Суровый. Слёзы Брайтона (2019) HDTV 1080p от Generalfilm

Эдуард Суровый. Слезы Брайтона


Год выпуска: 2019
Страна: Россия
Жанр: комедия
Перевод: Не требуется
Продолжительность: 01:09:05
Режиссер: Роман Новиков
В ролях:

Гарик Харламов (Эдуард Суровый), Иван Ургант (играет самого себя), Филипп Киркоров (играет самого себя), Тимати (играет самого себя), Дэниэл Хорват (Ховард), Олег Алмазов (Игорь Конопацкий), Вера Тарасова (Галя), Ольга Кожевникова (Ольга Грейсток), Григорий Лепс (играет самого себя), Лев Лещенко (играет самого себя), Михаил Боярский (играет самого себя), Лариса Рубальская (играет саму себя)

Описание:
Слава песенника Эдуарда Сурового пришлась на 70-е годы прошлого века, когда резидента Comedy Club Гарика Харламова, который назвал в его честь своего одиозного юмористического персонажа, не было еще и в проекте. С личного одобрения Леонида Брежнева Эдуарду позволили представлять СССР, закрытый железным занавесом, на знаменитом европейском музыкальном конкурсе.


Качество: HDTV 1080p
Формат: MKV
Видео: AVC, 1920x1080 (16:9), 5934 kbps, 25 fps, 0,114 bpp
Аудио: AC3 / 2.0 / 48 kHz / 192 kbps /

Релиз:


[+] ОтчетМедиаИнфо

General
Unique ID                                : 206912871617380989705716849331899703628 (0x9BA9F8334BA32E62B1EF4ADE47DFA14C)
Complete name                            : E:Запись с твEduard Surovy'j Slyozy Brajtona.2019.HDTV 1080p.by.White Smoke.R.G.Generalfilm.mkv
Format                                   : Matroska
Format version                           : Version 4 / Version 2
File size                                : 3.02 GiB
Duration                                 : 1 h 9 min
Overall bit rate mode                    : Constant
Overall bit rate                         : 6 251 kb/s
Movie name                               : Eduard Surovy'j Slyozy Brajtona.2019.HDTV 1080p.by.White Smoke.R.G.Generalfilm.mkv
Encoded date                             : UTC 2019-12-31 07:22:45
Writing application                      : mkvmerge v6.8.0 ('Theme for Great Cities') 64bit built on Mar  2 2014 21:34:26
Writing library                          : libebml v1.3.0 + libmatroska v1.4.1
Cover                                    : Yes
Attachments                              : cover.png

Video
ID                                       : 1
Format                                   : AVC
Format/Info                              : Advanced Video Codec
Format profile                           : High@L4.1
Format settings, CABAC                   : Yes
Format settings, ReFrames                : 3 frames
Codec ID                                 : V_MPEG4/ISO/AVC
Duration                                 : 1 h 9 min
Bit rate mode                            : Constant
Bit rate                                 : 5 934 kb/s
Nominal bit rate                         : 7 051 kb/s
Width                                    : 1 920 pixels
Height                                   : 1 080 pixels
Display aspect ratio                     : 16:9
Frame rate mode                          : Constant
Frame rate                               : 25.000 FPS
Standard                                 : PAL
Color space                              : YUV
Chroma subsampling                       : 4:2:0
Bit depth                                : 8 bits
Scan type                                : Progressive
Bits/(Pixel*Frame)                       : 0.114
Stream size                              : 2.86 GiB (95%)
Default                                  : Yes
Forced                                   : No
Color range                              : Limited
Color primaries                          : BT.709
Transfer characteristics                 : BT.709
Matrix coefficients                      : BT.709

Audio
ID                                       : 2
Format                                   : AC-3
Format/Info                              : Audio Coding 3
Mode extension                           : CM (complete main)
Format settings, Endianness              : Big
Codec ID                                 : A_AC3
Duration                                 : 1 h 9 min
Bit rate mode                            : Constant
Bit rate                                 : 192 kb/s
Channel(s)                               : 2 channels
Channel positions                        : Front: L R
Sampling rate                            : 48.0 kHz
Frame rate                               : 31.250 FPS (1536 spf)
Compression mode                         : Lossy
Stream size                              : 94.9 MiB (3%)
Default                                  : Yes
Forced                                   : No



Скриншоты:
[+] Всего файлов в раздаче - 1:

Похожие раздачи по запросу - эдуард:
2020-08-31 U Эдуард Стрельцов. Расплата (2020) HDTV 1080i от GeneralFilm 2.87 GB ↑ 50 ↓ 7
2020-08-29 U Эдуард Стрельцов. Расплата (2020) HDTVRip от GeneralFilm 578.23 MB ↑ 116 ↓ 20
2018-03-11 U Эдуард Тополь - Братство Маргариты [чит. Олег Кейнз] (2018) MP3 144.90 MB ↑ 1130 ↓ 66

Отзывы
Зарегистрируйтесь чтобы добавить комментарий.
Загрузите программу
  uTorrent.exe
Обратная связь
Copyleft ©