↑↓torrent.by
Поиск
Логин: Регистрация
Пароль: Восстановить пароль

Девятая (2019) WEB-DL 1080p | iTunes

Скачать devyataya-2019-web-dl-1080p-itunes.torrent
U Магнитная ссылка Размер: 3.23 GB Раздают: 686 Качают: 310 Добавлен: 2020-01-01 07:59:38
Девятая (2019) WEB-DL 1080p | iTunes

Название: Девятая
Год выпуска: 2019
Жанр:  Триллер, приключения, детектив, ужасы
Режиссер: Николай Хомерики
В ролях: Евгений Цыганов, Дэйзи Хэд, Дмитрий Лысенков, Джонатан Солвей, Юрий Колокольников, Евгений Ткачук, Игорь Черневич, Иван Решетняк, Мария Скуратова, Анна Христич, Игорь Грабузов, Вилен Бабичев

О фильме: Петербург конца XIX века охвачен массовым увлечением оккультными науками и эзотерикой. Британка-медиум Оливия Рид приезжает в столицу Российской империи с гастролями и собирает на своих публичных спиритических сеансах толпы людей. В это время в городе происходит серия ритуальных загадочных убийств. На улицах похищают девушек, их изувеченные тела находят в самых разных концах города. Расследованием занимаются молодой полицейский офицер Ростов и его помощник Ганин. С каждой новой жертвой дело становится все запутаннее. Подозрение приводит Ростова к Оливии, и он решает обратиться к ней в надежде, что ее подлинная или мнимая способность вызывать духов погибших может помочь выйти на след убийцы.

Страна: Россия
Студия: Нон-стоп Продакшн
Продолжительность: 01:34:45
Язык: Русский | iTunes

Файл
Качество: WEB-DL 1080p
Контейнер: MKV
Видео: MPEG-4 AVC, 1920x806, 25.000 fps, 4401 Kbps
Аудио: Russian: 48.0 KHz, AC3, 6 ch, 384 kbps - iTunes
Субтитры: Нет

Релиз:


[+] MediaInfo
General
Unique ID                                : 230250370035098208996085850687129976371 (0xAD389BB55571D32489C4AC7ABB2AFE33)
Complete name                            : 9_2019_WEB-DL_1080p-BLUEBIRD.mkv
Format                                   : Matroska
Format version                           : Version 4 / Version 2
File size                                : 3.23 GiB
Duration                                 : 1 h 34 min
Overall bit rate                         : 4 882 kb/s
Encoded date                             : UTC 2019-12-31 19:39:57
Writing application                      : mkvmerge v6.9.1 ('Blue Panther') 32bit built on Apr 18 2014 18:15:44
Writing library                          : libebml v1.3.0 + libmatroska v1.4.1
Cover                                    : Yes
Attachments                              : cover4.png

Video
ID                                       : 1
Format                                   : AVC
Format/Info                              : Advanced Video Codec
Format profile                           : High@L4
Format settings, CABAC                   : Yes
Format settings, RefFrames               : 5 frames
Codec ID                                 : V_MPEG4/ISO/AVC
Duration                                 : 1 h 34 min
Bit rate                                 : 4 401 kb/s
Width                                    : 1 920 pixels
Height                                   : 806 pixels
Display aspect ratio                     : 2.40:1
Frame rate mode                          : Constant
Frame rate                               : 25.000 FPS
Color space                              : YUV
Chroma subsampling                       : 4:2:0
Bit depth                                : 8 bits
Scan type                                : Progressive
Bits/(Pixel*Frame)                       : 0.114
Stream size                              : 2.91 GiB (90%)
Language                                 : English
Default                                  : Yes
Forced                                   : No
Color range                              : Limited
Color primaries                          : BT.709
Transfer characteristics                 : BT.709
Matrix coefficients                      : BT.709

Audio
ID                                       : 2
Format                                   : AC-3
Format/Info                              : Audio Coding 3
Format settings, Endianness              : Big
Codec ID                                 : A_AC3
Duration                                 : 1 h 34 min
Bit rate mode                            : Constant
Bit rate                                 : 384 kb/s
Channel(s)                               : 6 channels
Channel positions                        : Front: L C R, Side: L R, LFE
Sampling rate                            : 48.0 kHz
Frame rate                               : 31.250 FPS (1536 SPF)
Bit depth                                : 16 bits
Compression mode                         : Lossy
Stream size                              : 260 MiB (8%)
Title                                    : [ORIGINAL] DD 5.1 @ 384 kbps (iTunes)
Language                                 : Russian
Service kind                             : Complete Main
Default                                  : Yes
Forced                                   : No

Menu
00:00:00.000                             : en:Глава 1
00:08:02.920                             : en:Глава 2
00:16:12.120                             : en:Глава 3
00:24:18.640                             : en:Глава 4
00:32:36.680                             : en:Глава 5
00:40:41.040                             : en:Глава 6
00:48:47.960                             : en:Глава 7
00:56:49.120                             : en:Глава 8
01:05:09.040                             : en:Глава 9
01:13:13.240                             : en:Глава 10
01:21:17.240                             : en:Глава 11



Скриншоты:
[+] Всего файлов в раздаче - 1:
9_2019_WEB-DL_1080p-BLUEBIRD.mkv3.23 GB

Похожие раздачи по запросу - девятая:
2020-01-01 U Девятая (2019) WEB-DLRip-AVC от ExKinoRay | iTunes 1.45 GB ↑ 490 ↓ 149
2020-01-01 U Девятая (2019) WEB-DLRip | iTunes 1.37 GB ↑ 421 ↓ 238

Отзывы
Зарегистрируйтесь чтобы добавить комментарий.
Обратная связь
Copyleft ©