↑↓torrent.by
Поиск
Логин: Регистрация
Пароль: Восстановить пароль

Лев Яшин. Вратарь моей мечты (2019) WEB-DL 1080p | iTunes

Скачать lev-yashin-vratar-moey-mechty-2019-web-dl-1080p-itunes.torrent
U Магнитная ссылка Размер: 3.98 GB Раздают: 818 Качают: 384 Добавлен: 2020-01-02 06:34:56
Лев Яшин. Вратарь моей мечты (2019) WEB-DL 1080p | iTunes

Название: Лев Яшин. Вратарь моей мечты
Год выхода: 2019
Жанр: Биография, спорт, драма
Страна: Россия
Перевод: Не требуется
Продолжительность: 01:56:02
Режиссер: Василий Чигинский
В ролях: Александр Фокин, Юлия Хлынина, Алексей Гуськов, Алексей Кравченко, Евгений Дятлов, Виталий Хаев, Михаил Елисеев, Ян Цапник, Александр Самойленко, Владимир Андреев и др.

О фильме: Чёрный паук, Чёрная пантера и даже Чёрный осьминог — такими прозвищами награждали Льва Яшина за гибкость, молниеносное перемещение и гениальное видение поля. Он, неизменно в черном свитере с буквой «Д», был полноправным хозяином в своей штрафной. После поражения на Чемпионате мира в Чили ему придется уйти, чтобы позже с триумфом вернуться и снова стать лучшим не только в стране, но и во всем мире — единственным вратарём за всю историю футбола, получившим Золотой мяч. Лучшим, по мнению FIFA, вратарем ХХ века.

Файл
Качество: WEB-DL 1080p
Видео: MPEG-4 AVC, 1912x792, 4527 kbps, 23,976 fps
Звук: русский, AC3, 5.1 ch, 48 kHz, 384 kbps
Субтитры: нет

Релиз:


[+] MI
Общее
Уникальный идентификатор                 : 234618732109081043671026536369281774422 (0xB081EC964B445C409DB03D81CDA73356)
Полное имя                               : G:Torrent2LevYAshinVratarMoejMechtyWEBDL1080p.mkv
Формат                                   : Matroska
Версия формата                           : Version 4 / Version 2
Размер файла                             : 3,98 Гбайт
Продолжительность                        : 1 ч. 56 м.
Общий поток                              : 4913 Кбит/сек
Дата кодирования                         : UTC 2020-01-01 19:38:43
Программа кодирования                    : mkvmerge v9.5.0 ('Quiet Fire') 64bit
Библиотека кодирования                   : libebml v1.3.4 + libmatroska v1.4.5

Видео
Идентификатор                            : 1
Формат                                   : AVC
Формат/Информация                        : Advanced Video Codec
Профиль формата                          : High@L4
Настройки формата                        : CABAC / 5 Ref Frames
Параметр CABAC формата                   : Да
Параметр RefFrames формата               : 5 кадров
Идентификатор кодека                     : V_MPEG4/ISO/AVC
Продолжительность                        : 1 ч. 56 м.
Битрейт                                  : 4527 Кбит/сек
Ширина                                   : 1912 пикселей
Высота                                   : 792 пикселя
Соотношение сторон                       : 2,40:1
Режим частоты кадров                     : Постоянный
Частота кадров                           : 23,976 кадра/сек
Цветовое пространство                    : YUV
Субдискретизация насыщенности            : 4:2:0
Битовая глубина                          : 8 бит
Тип развёртки                            : Прогрессивная
Бит/(Пиксели*Кадры)                      : 0.125
Размер потока                            : 3,67 Гбайт (92%)
Язык                                     : English
Default                                  : Да
Forced                                   : Нет
Цветовой диапазон                        : Limited
Основные цвета                           : BT.709
Характеристики трансфера                 : BT.709
Коэффициенты матрицы                     : BT.709

Аудио
Идентификатор                            : 2
Формат                                   : AC-3
Формат/Информация                        : Audio Coding 3
Параметр Endianness формата              : Big
Идентификатор кодека                     : A_AC3
Продолжительность                        : 1 ч. 56 м.
Вид битрейта                             : Постоянный
Битрейт                                  : 384 Кбит/сек
Каналы                                   : 6 каналов
Расположение каналов                     : Front: L C R, Side: L R, LFE
Частота                                  : 48,0 КГц
Частота кадров                           : 31,250 кадров/сек (1536 SPF)
Битовая глубина                          : 16 бит
Метод сжатия                             : С потерями
Размер потока                            : 319 Мбайт (8%)
Заголовок                                : rus
Язык                                     : Russian
Default                                  : Да
Forced                                   : Нет

Меню
00:00:00.000                             : en:1
00:03:17.000                             : en:2
00:10:08.000                             : en:3
00:20:19.000                             : en:4
00:31:28.000                             : en:5
00:41:06.000                             : en:6
00:50:11.000                             : en:7
01:01:07.000                             : en:8
01:09:30.000                             : en:9
01:20:23.000                             : en:10
01:29:58.000                             : en:11
01:40:56.000                             : en:12
01:51:15.000                             : en:13




Скриншоты:
[+] Всего файлов в раздаче - 1:
LevYAshinVratarMoejMechtyWEBDL1080p.mkv3.98 GB

Похожие раздачи по запросу - яшин:
2020-05-14 U Лев Яшин. Вратарь моей мечты (2019) HDRip от Scarabey | Лицензия 1.45 GB ↑ 424 ↓ 24

Отзывы
Зарегистрируйтесь чтобы добавить комментарий.
Загрузите программу
  uTorrent.exe
Обратная связь
Copyleft ©