↑↓torrent.by
Поиск
Логин: Регистрация
Пароль: Восстановить пароль

Вечерний квартал [122] (2019) WEBRip от GeneralFilm

Скачать vecherniy-kvartal-122-2019-webrip-ot-generalfilm.torrent
U Магнитная ссылка Размер: 2.82 GB Раздают: 242 Качают: 106 Добавлен: 2020-01-03 15:18:54
Вечерний квартал [122] (2019) WEBRip от GeneralFilm

Оригинальное название: Вечерний квартал
Год выпуска: 2019
Жанр:  Юмористическое шоу, концерт, сатира
Выпущено: Украина, Студия 95 квартал
Режиссер: Студия 95 квартал
В ролях: Юрий Великий, Юрий Крапов, Елена Кравец, Евгений Кошевой, Сергей Казанин, Александр Пикалов, Юрий Корявченков, Аркадий Лапухин

О фильме:
Однажды веселые ребята из "95-го квартала" решили отметить свой переезд из родного Кривого Рога в Киев, а заодно 10-летие команды новым шоу. Коллектив подобрался душевный, "с огоньком", гости - сплошь знаменитые, а столичная публика - щедрая на аплодисменты. Так родилась самая смешная и популярная передача на отечественном телевидении - "Вечерний квартал". Идея шоу проста: в городе N есть некий модный квартал, в котором тусуются девять смешных жителей. Остальные просто приходят к ним в гости. Правда, гости не совсем обычные: среди них встречаются и богатые, и знаменитые, политики, и дизайнеры, и поп-звезды. Главный критерий - наличие здорового чувства юмора. Без него - никак, так как гостей здесь встречают не хлебом-солью, а розыгрышами и подколками, а те в свою очередь участвуют в скетчах и исполняют музыкальные или танцевальные номера.

Качество: WEBRip
Видео: XviD build 73, 720x400 (16:9), 25.000 fps, ~ 1740 Kbps (0.244 bit/pixel)
Аудио: 48.0 kHz, AC3, 2/0 ch, 192 kbps
Продолжительность: 2 x ~ 01:30:00
Перевод: Не требуется
Cубтитры: нет

Релиз:
[+] Содержание
MONATIK - Открытие Новогоднего Вечернего Квартала 2020
Трамп, Порошенко и Кличко поздравляют Зеленского с Новым Годом
Весна прошла давно, еще не сел никто!
Как Коломойский Квартал покупал
Чиновник за 5 минут до проверки НАБУ - Новогоднее Дискавери
Новый муж сценической жены Зеленского решил устроить разборки с её бывшим
Кошевой vs DZIDZIO - Оперный Батл
Перепись пьяного населения 1 января
Жена изменила мужу с Александром Усиком
Песня про ЗОЖ и Новый Год
Етить-колотить! Творческий вечер по пьяни
Хор Коломойского - песня извинение перед Гонтаревой
Добровольная тюрьма для девушек - Валерий Жидков
MONATIK - Vitamin Буээ
Что такое АВАКОВщина и когда сестры Кличко сменили пол? Шоу Интеллектуал 2050
Хор Веревки поет почти по трезвяку
Здесь никогда не бывает бодуна - Снежная Королева 15 лет спустя
Dr. Alban угадывает предметы из 90-х
Батл - Вечерний Квартал vs Женский Квартал vs Лига Смеха
Оля Полякова - Новогодний Джингл
Жена застукала мужа депутата с проститутками
Тина Кароль - Новогодний Джингл
Жена выпытывает у Зеленского государственные тайны
Квартет по трезвяку
С Новым Годом, Украина! Финальная песня



[+] MediaInfo
General
Complete name               : D:RazdachiVechernij.Kvartal.122.WEBRip.GeneralFilme01.Kvartal.avi
Format                      : AVI
Format/Info                 : Audio Video Interleave
File size                   : 1.37 GiB
Duration                    : 1 h 39 min
Overall bit rate            : 1 960 kb/s
Writing application         : VirtualDubMod 1.5.10.3 | www.virtualdub-fr.org || (build 2550/release)
Writing library             : VirtualDubMod build 2550/release

Video
ID                          : 0
Format                      : MPEG-4 Visual
Format profile              : Advanced Simple@L5
Format settings             : BVOP1 / Custom Matrix
Format settings, BVOP       : 1
Format settings, QPel       : No
Format settings, GMC        : No warppoints
Format settings, Matrix     : Custom
Codec ID                    : XVID
Codec ID/Hint               : XviD
Duration                    : 1 h 39 min
Bit rate                    : 1 759 kb/s
Width                       : 720 pixels
Height                      : 400 pixels
Display aspect ratio        : 16:9
Frame rate                  : 25.000 FPS
Color space                 : YUV
Chroma subsampling          : 4:2:0
Bit depth                   : 8 bits
Scan type                   : Progressive
Compression mode            : Lossy
Bits/(Pixel*Frame)          : 0.244
Stream size                 : 1.23 GiB (90%)
Writing library             : XviD 73

Audio
ID                          : 1
Format                      : AC-3
Format/Info                 : Audio Coding 3
Commercial name             : Dolby Digital
Codec ID                    : 2000
Duration                    : 1 h 39 min
Bit rate mode               : Constant
Bit rate                    : 192 kb/s
Channel(s)                  : 2 channels
Channel layout              : L R
Sampling rate               : 48.0 kHz
Frame rate                  : 31.250 FPS (1536 SPF)
Compression mode            : Lossy
Stream size                 : 137 MiB (10%)
Alignment                   : Split across interleaves
Interleave, duration        : 40  ms (1.00 video frame)
Interleave, preload duratio : 500  ms
Service kind                : Complete Main



Скриншоты:
[+] Всего файлов в раздаче - 2:
e01.Kvartal.avi1.37 GB
e02.Kvartal.avi1.46 GB

Похожие раздачи по запросу - вечерний:
2020-04-05 U Вечерний квартал [124] (2020) WEBRip от GeneralFilm 1.09 GB ↑ 297 ↓ 93
2020-03-29 U Вечерний квартал [123] (2020) WEBRip от GeneralFilm 1.09 GB ↑ 207 ↓ 76

Отзывы
Зарегистрируйтесь чтобы добавить комментарий.
Обратная связь
Copyleft ©