↑↓torrent.by
Поиск
Логин: Регистрация
Пароль: Восстановить пароль

Рожденный после смерти / Strange But True (2019) BDRip | iTunes

Скачать rozhdennyy-posle-smerti-strange-but-true-2019-bdrip-itunes.torrent
U Магнитная ссылка Размер: 1.45 GB Раздают: 936 Качают: 325 Добавлен: 2020-01-05 10:51:04
Рожденный после смерти / Strange But True (2019) BDRip | iTunes

Название: Рожденный после смерти
Оригинальное название: Strange But True
Год выхода: 2019
Жанр: Триллер
Страна: Канада
Перевод: Профессиональный (многоголосый закадровый) | iTunes
Продолжительность: 01:35:37
Режиссер: Роуэн Этейл
В ролях: Ник Робинсон, Эми Райан, Грег Киннир, Брайан Кокс, Маргарет Куэлли, Коннор Джессап, Блайт Даннер, Яная Стефенс, Мена Массуд, Сара Аллен и др.

О фильме: Спустя пять лет после гибели старшеклассника Ронни Чейза, который разбился на машине в выпускной вечер, к его матери и брату приходит его школьная подруга Мелисса. Она уверяет, что ждёт ребенка от Ронни. Недоверчивые родственники пытаются выяснить правду, которая оказывается страшнее всех предположений.

Файл
Формат: AVI
Качество: BDRip | Strange.But.True.2019.COMPLETE.BLURAY-watchHD
Видео: Xvid 73, 720x304, ~1771 kbps, 23,976 fps
Звук: русский, AC3, 5.1 ch, 48 kHz, 384 kbps | iTunes
Субтитры: нет

Рип и релиз от:


[+] MI
Общее
Полное имя                               : G:Torrent2StrangeButTrueBDRip.avi
Формат                                   : AVI
Формат/Информация                        : Audio Video Interleave
Профиль формата                          : OpenDML
Размер файла                             : 1,45 Гбайт
Продолжительность                        : 1 ч. 35 м.
Общий поток                              : 2167 Кбит/сек
Программа кодирования                    : XviD4PSP 6.0 / 53.6.0

Видео
Идентификатор                            : 0
Формат                                   : MPEG-4 Visual
Профиль формата                          : Advanced Simple@L5
Настройки формата                        : BVOP1 / Custom Matrix
Параметр BVOP формата                    : 1
Параметр QPel формата                    : Нет
Параметр GMC формата                     : Без точки перехода
Параметр матрицы формата                 : Выборочная
Идентификатор кодека                     : XVID
Идентификатор кодека/Подсказка           : XviD
Продолжительность                        : 1 ч. 35 м.
Битрейт                                  : 1771 Кбит/сек
Ширина                                   : 720 пикселей
Высота                                   : 304 пикселя
Соотношение сторон                       : 2,35:1
Частота кадров                           : 23,976 (23976/1000) кадра/сек
Цветовое пространство                    : YUV
Субдискретизация насыщенности            : 4:2:0
Битовая глубина                          : 8 бит
Тип развёртки                            : Прогрессивная
Метод сжатия                             : С потерями
Бит/(Пиксели*Кадры)                      : 0.337
Размер потока                            : 1,18 Гбайт (82%)
Библиотека кодирования                   : XviD 73

Аудио
Идентификатор                            : 1
Формат                                   : AC-3
Формат/Информация                        : Audio Coding 3
Параметр Endianness формата              : Big
Идентификатор кодека                     : 2000
Продолжительность                        : 1 ч. 35 м.
Вид битрейта                             : Постоянный
Битрейт                                  : 384 Кбит/сек
Каналы                                   : 6 каналов
Расположение каналов                     : Front: L C R, Side: L R, LFE
Частота                                  : 48,0 КГц
Частота кадров                           : 31,250 кадров/сек (1536 SPF)
Битовая глубина                          : 16 бит
Метод сжатия                             : С потерями
Размер потока                            : 263 Мбайт (18%)
Выравнивание                             : Соединение по промежуткам
Продолжительность промежутка             : 32  мс. (0,77 видеокадр)




Скриншоты:
[+] Всего файлов в раздаче - 1:
StrangeButTrueBDRip.avi1.45 GB

Похожие раздачи по запросу - рожденный:
2020-01-05 U Рожденный после смерти / Strange But True (2019) HDRip от Portablius | iTunes 744.93 MB ↑ 144 ↓ 42
2020-01-05 U Рожденный после смерти / Strange But True (2019) BDRip-AVC | iTunes 1К1.43 GB ↑ 214 ↓ 32
2020-01-05 U Рожденный после смерти / Strange But True (2019) BDRip 1080p | iTunes 7.32 GB ↑ 619 ↓ 358
2019-04-19 U Рождённый стать королем / The Kid Who Would Be King (2019) HDRip от Dalemake | iTunes 1.46 GB ↑ 939 ↓ 281

Отзывы
Зарегистрируйтесь чтобы добавить комментарий.
Обратная связь
Copyleft ©