↑↓torrent.by
Поиск
Логин: Регистрация
Пароль: Восстановить пароль

Рожденный после смерти / Strange But True (2019) BDRip-AVC | iTunes

Скачать rozhdennyy-posle-smerti-strange-but-true-2019-bdrip-avc-itunes.torrent
U Магнитная ссылка Размер: 1.43 GB Раздают: 214 Качают: 32 Добавлен: 2020-01-05 10:52:42
Рожденный после смерти / Strange But True (2019) BDRip-AVC | iTunes

Рожденный после смерти / Strange But True

Страна: Канада
Производство: Automatik Entertainment, First Generation Films, Head Gear Films, Metrol Technology
Год выпуска: 2019
Жанр:  триллер
Продолжительность: 01:35:37

Режиссер: Роуэн Этейл
Авторы сценария: Эрик Гарсия, Джон Сирлс
В ролях: Ник Робинсон, Эми Райан, Грег Киннир, Брайан Кокс, Маргарет Куэлли, Коннор Джессап, Блайт Даннер, Яная Стефенс, Мена Массуд

Описание: Спустя пять лет после гибели старшеклассника Ронни Чейза, который разбился на машине в выпускной вечер, к его матери и брату приходит его школьная подруга Мелисса. Она уверяет, что ждёт ребёнка от Ронни. Недоверчивые родственники пытаются выяснить правду, которая оказывается страшнее всех предположений...

Перевод: Профессиональный (многоголосый, закадровый) | iTunes
Субтитры: нет

Качество: BDRip-AVC | исходник: Strange.But.True.2019.1080p.BluRay.REMUX.AVC.DTS-HD.MA.5.1-FGT
Формат: МКV
Видео кодек: AVC
Аудио кодек: АС3
Видео: 1046x438 (2.40:1), 23.976 fps, MPEG-4 AVC ~1 709 kbps avg
Аудио: 48.0 kHz, AC3 Dolby Digital, 3/2 (L,C,R,l,r) + LFE ch, ~384 kbps

Дата премьеры (мир): 22 июня 2019
Дата премьеры (РФ): 5 декабря 2019, «Экспонента»

Релиз от: _ivanes


[+] Media Info
General
Complete name               : Рожденный после смерти (2019) BDRip-AVC_ivanes.mkv
Format                      : Matroska
Format version              : Version 2
File size                   : 1.43 GiB
Duration                    : 1 h 35 min
Overall bit rate            : 2 135 kb/s
Movie name                  : Рожденный после смерти (2019) BDRip-AVC_ivanes
Encoded date                : UTC 2020-01-04 23:12:37
Writing application         : mkvmerge v4.4.0 ('Die Wiederkehr') сборка от Jan  3 2011 21:40:45
Writing library             : libebml v1.0.0 + libmatroska v1.0.0
Cover                       : Yes
Attachments                 : cover.jpg

Video
ID                          : 1
Format                      : AVC
Format/Info                 : Advanced Video Codec
Format profile              : High@L4.1
Format settings             : CABAC / 11 Ref Frames
Format settings, CABAC      : Yes
Format settings, Reference  : 11 frames
Codec ID                    : V_MPEG4/ISO/AVC
Duration                    : 1 h 35 min
Bit rate                    : 1 709 kb/s
Width                       : 1 046 pixels
Height                      : 438 pixels
Display aspect ratio        : 2.40:1
Frame rate mode             : Constant
Frame rate                  : 23.976 (24000/1001) FPS
Color space                 : YUV
Chroma subsampling          : 4:2:0
Bit depth                   : 8 bits
Scan type                   : Progressive
Bits/(Pixel*Frame)          : 0.156
Stream size                 : 1.14 GiB (80%)
Title                       : Rip by ivanes
Writing library             : x264 core 158 r2988 7817004
Encoding settings           : cabac=1 / ref=11 / deblock=1:-3:-3 / analyse=0x3:0x113 / me=umh / subme=10 / psy=1 / psy_rd=1.00:0.00 / mixed_ref=1 / me_range=32 / chroma_me=1 / trellis=2 / 8x8dct=1 / cqm=0 / deadzone=21,11 / fast_pskip=0 / chroma_qp_offset=-2 / threads=12 / lookahead_threads=3 / sliced_threads=0 / nr=0 / decimate=1 / interlaced=0 / bluray_compat=0 / constrained_intra=0 / bframes=13 / b_pyramid=2 / b_adapt=2 / b_bias=0 / direct=1 / weightb=1 / open_gop=0 / weightp=2 / keyint=240 / keyint_min=23 / scenecut=40 / intra_refresh=0 / rc_lookahead=60 / rc=crf / mbtree=0 / crf=18.5 / qcomp=0.60 / qpmin=0 / qpmax=69 / qpstep=4 / vbv_maxrate=50000 / vbv_bufsize=62500 / crf_max=0.0 / nal_hrd=none / filler=0 / ip_ratio=1.40 / pb_ratio=1.30 / aq=1:1.00
Default                     : Yes
Forced                      : No
Statistics Tags Issue       : mkvmerge v29.0.0 ('Like It Or Not') 64-bit 2020-01-04 22:52:19 / mkvmerge v4.4.0 ('Die Wiederkehr') сборка от Jan  3 2011 21:40:45 2020-01-04 23:12:37
FromStats_BitRate           : 1749372
FromStats_Duration          : 01:35:37.732000000
FromStats_FrameCount        : 137568
FromStats_StreamSize        : 1254678476

Audio
ID                          : 2
Format                      : AC-3
Format/Info                 : Audio Coding 3
Commercial name             : Dolby Digital
Codec ID                    : A_AC3
Duration                    : 1 h 35 min
Bit rate mode               : Constant
Bit rate                    : 384 kb/s
Channel(s)                  : 6 channels
Channel layout              : L R C LFE Ls Rs
Sampling rate               : 48.0 kHz
Frame rate                  : 31.250 FPS (1536 SPF)
Compression mode            : Lossy
Stream size                 : 263 MiB (18%)
Title                       : iTunes
Language                    : Russian
Service kind                : Complete Main
Default                     : Yes
Forced                      : No



Скриншоты:
[+] Всего файлов в раздаче - 1:
Рожденный после смерти (2019) BDRip-AVC_ivanes.mkv1.43 GB

Похожие раздачи по запросу - рожденный:
2020-01-05 U Рожденный после смерти / Strange But True (2019) HDRip от Portablius | iTunes 744.93 MB ↑ 144 ↓ 42
2020-01-05 U Рожденный после смерти / Strange But True (2019) BDRip 1080p | iTunes 7.32 GB ↑ 622 ↓ 358
2020-01-05 U Рожденный после смерти / Strange But True (2019) BDRip | iTunes 1.45 GB ↑ 936 ↓ 326
2019-04-19 U Рождённый стать королем / The Kid Who Would Be King (2019) HDRip от Dalemake | iTunes 1.46 GB ↑ 939 ↓ 281

Отзывы
nasttyyaa
Рейтинг соответствует, до шести не тянет

Зарегистрируйтесь чтобы добавить комментарий.
Обратная связь
Copyleft ©