↑↓torrent.by
Поиск
Логин: Регистрация
Пароль: Восстановить пароль

Эбигейл (2019) BDRip 720p | iTunes

Скачать ebigeyl-2019-bdrip-720p-itunes.torrent
U Магнитная ссылка Размер: 4.50 GB Раздают: 155 Качают: 62 Добавлен: 2020-01-06 19:01:36
Эбигейл (2019) BDRip 720p | iTunes

«В мире всё не то, чем кажется»

Название: Эбигейл
Год выхода: 2019
Жанр: Приключения, фэнтези, семейный
Режиссер: Александр Богуславский
В ролях: Тинатин Далакишвили, Эдди Марсан, Артём Ткаченко, Равшана Куркова, Риналь Мухаметов, Глеб Бочков, Марта Тимофеева, Никита Тарасов, Ксения Кутепова, Петар Зекавица

О фильме:
Молодая девушка Эбигейл живет в городе, границы которого закрыли много лет назад из-за эпидемии загадочной болезни. Отец Эбби был одним из заболевших — и его забрали, когда ей было шесть лет. Пойдя наперекор властям, чтобы разыскать отца, Эбби узнает о том, что ее город на самом деле полон магии. И в ней самой пробуждаются необыкновенные магические способности…

Страна: Россия
Студия: KD Studios
Продолжительность: 01:46:15
Перевод: Не требуется

Файл
Качество: BDRip 720p
Формат: MKV
Кодек: MPEG-4 AVC
Видео: 1280x536 (16:9), 25 fps, MPEG-4 AVC ~ 4405 Кbps avg, 0.257 bit/pixel
Аудио: AC3, 48 kHz, 6 ch, ~384.00 kbps avg | русский | iTunes
Аудио: AC3, 48 kHz, 6 ch, ~640.00 kbps avg | французский | дубляж
Аудио: AC3, 48 kHz, 6 ch, ~640.00 kbps avg | английский | дубляж
Субтитры: Французские (полные)


[+] Инфо-файл
Общее
Уникальный идентификатор                 : 238350574723155451884944058049218456821 (0xB350A6A22D49EBE12E440B6BAB33ACF5)
Полное имя                               : G:ilesAbigail.2019.720pBlu.Ray.x264.Rus.Fre.Eng.mkv
Формат                                   : Matroska
Версия формата                           : Version 4
Размер файла                             : 4,50 Гбайт
Продолжительность                        : 1 ч. 46 м.
Общий поток                              : 6065 Кбит/сек
Название фильма                          : Эбигейл (2019)
Дата кодирования                         : UTC 2020-01-06 09:55:54
Программа кодирования                    : mkvmerge v41.0.0 ('Smarra') 64-bit
Библиотека кодирования                   : libebml v1.3.9 + libmatroska v1.5.2
Обложка                                  : Yes
Attachments                              : cover.jpg

Видео
Идентификатор                            : 1
Формат                                   : AVC
Формат/Информация                        : Advanced Video Codec
Профиль формата                          : High@L4.1
Настройки формата                        : CABAC / 9 Ref Frames
Параметр CABAC формата                   : Да
Параметр RefFrames формата               : 9 кадров
Идентификатор кодека                     : V_MPEG4/ISO/AVC
Продолжительность                        : 1 ч. 46 м.
Битрейт                                  : 4405 Кбит/сек
Ширина                                   : 1280 пикселей
Высота                                   : 536 пикселей
Соотношение сторон                       : 2,40:1
Режим частоты кадров                     : Постоянный
Частота кадров                           : 25,000 кадров/сек
Цветовое пространство                    : YUV
Субдискретизация насыщенности            : 4:2:0
Битовая глубина                          : 8 бит
Тип развёртки                            : Прогрессивная
Бит/(Пиксели*Кадры)                      : 0.257
Размер потока                            : 3,26 Гбайт (73%)
Заголовок                                : #stillet
Библиотека кодирования                   : x264 core 152 r2851bm ba24899
Настройки программы                      : cabac=1 / ref=9 / deblock=1:-3:-3 / analyse=0x3:0x133 / me=umh / subme=11 / psy=1 / psy_rd=1.00:0.15 / mixed_ref=1 / me_range=32 / chroma_me=1 / trellis=2 / 8x8dct=1 / cqm=0 / deadzone=21,11 / fast_pskip=0 / chroma_qp_offset=-3 / threads=16 / lookahead_threads=3 / sliced_threads=0 / nr=0 / decimate=0 / interlaced=0 / bluray_compat=0 / constrained_intra=0 / bframes=11 / b_pyramid=2 / b_adapt=2 / b_bias=0 / direct=3 / weightb=1 / open_gop=0 / weightp=2 / keyint=250 / keyint_min=24 / scenecut=40 / intra_refresh=0 / rc=2pass / mbtree=0 / bitrate=4405 / ratetol=1.0 / qcomp=0.60 / qpmin=0 / qpmax=69 / qpstep=4 / cplxblur=20.0 / qblur=0.5 / ip_ratio=1.40 / pb_ratio=1.30 / aq=1:1.00
Язык                                     : English
Default                                  : Да
Forced                                   : Нет

Аудио #1
Идентификатор                            : 2
Формат                                   : AC-3
Формат/Информация                        : Audio Coding 3
Коммерческое название                    : Dolby Digital
Идентификатор кодека                     : A_AC3
Продолжительность                        : 1 ч. 46 м.
Вид битрейта                             : Постоянный
Битрейт                                  : 384 Кбит/сек
Каналы                                   : 6 каналов
ChannelLayout                            : L R C LFE Ls Rs
Частота                                  : 48,0 КГц
Частота кадров                           : 31,250 кадров/сек (1536 SPF)
Метод сжатия                             : С потерями
Размер потока                            : 292 Мбайт (6%)
Заголовок                                : iTunes
Язык                                     : Russian
Default                                  : Да
Forced                                   : Нет

Аудио #2
Идентификатор                            : 3
Формат                                   : AC-3
Формат/Информация                        : Audio Coding 3
Коммерческое название                    : Dolby Digital
Идентификатор кодека                     : A_AC3
Продолжительность                        : 1 ч. 46 м.
Вид битрейта                             : Постоянный
Битрейт                                  : 640 Кбит/сек
Каналы                                   : 6 каналов
ChannelLayout                            : L R C LFE Ls Rs
Частота                                  : 48,0 КГц
Частота кадров                           : 31,250 кадров/сек (1536 SPF)
Метод сжатия                             : С потерями
Размер потока                            : 486 Мбайт (11%)
Заголовок                                : DUB
Язык                                     : French
Default                                  : Нет
Forced                                   : Нет

Аудио #3
Идентификатор                            : 4
Формат                                   : AC-3
Формат/Информация                        : Audio Coding 3
Коммерческое название                    : Dolby Digital
Идентификатор кодека                     : A_AC3
Продолжительность                        : 1 ч. 46 м.
Вид битрейта                             : Постоянный
Битрейт                                  : 640 Кбит/сек
Каналы                                   : 6 каналов
ChannelLayout                            : L R C LFE Ls Rs
Частота                                  : 48,0 КГц
Частота кадров                           : 31,250 кадров/сек (1536 SPF)
Метод сжатия                             : С потерями
Размер потока                            : 486 Мбайт (11%)
Заголовок                                : DUB
Язык                                     : English
Default                                  : Нет
Forced                                   : Нет

Текст
Идентификатор                            : 5
Формат                                   : UTF-8
Идентификатор кодека                     : S_TEXT/UTF8
Идентификатор кодека/Информация          : UTF-8 Plain Text
Продолжительность                        : 1 ч. 41 м.
Битрейт                                  : 45 бит/сек
ElementCount                             : 1044
Размер потока                            : 33,9 Кбайт (0%)
Заголовок                                : Full
Язык                                     : French
Default                                  : Нет
Forced                                   : Нет




Скриншоты:
[+] Всего файлов в раздаче - 1:
Abigail.2019.720p.Blu.Ray.x264.Rus.Fre.Eng.mkv4.50 GB

Показать еще раздачи по запросу эбигейл:
2020-01-08 U Эбигейл (2019) HDRip от Scarabey | Лицензия 1.40 GB ↑ 158 ↓ 8
2020-01-06 U Эбигейл (2019) BDRemux 1080i | iTunes 19.76 GB ↑ 95 ↓ 64
2020-01-06 U Эбигейл (2019) BDRip 1080p | iTunes 8.06 GB ↑ 202 ↓ 100
2020-01-06 U Эбигейл (2019) BDRip от MegaPeer | iTunes 1.46 GB ↑ 141 ↓ 35
2019-10-23 U Эбигейл (2019) WEB-DLRip от ExKinoRay | iTunes 748.66 MB ↑ 39 ↓ 7
2019-10-09 U Эбигейл (2019) WEB-DLRip от Scarabey | iTunes 1.44 GB ↑ 327 ↓ 18
2019-10-06 U Эбигейл (2019) WEB-DLRip-AVC от ExKinoRay | iTunes 745.48 MB ↑ 101 ↓ 41

Отзывы
Зарегистрируйтесь чтобы добавить комментарий.
Обратная связь
Copyleft ©