↑↓torrent.by
Поиск
Логин: Регистрация
Пароль: Восстановить пароль

Эбигейл (2019) BDRemux 1080i | iTunes

Скачать ebigeyl-2019-bdremux-1080i-itunes.torrent
U Магнитная ссылка Размер: 19.76 GB Раздают: 95 Качают: 64 Добавлен: 2020-01-06 19:02:01
Эбигейл (2019) BDRemux 1080i | iTunes

Название: Эбигейл
Год выхода: 2019
Жанр: приключения, фэнтези, семейный
Режиссер: Александр Богуславский
В ролях: Тинатин Далакишвили, Эдди Марсан, Артём Ткаченко, Равшана Куркова, Риналь Мухаметов, Глеб Бочков, Марта Тимофеева, Никита Тарасов, Ксения Кутепова, Петар Зекавица

О фильме:
Молодая девушка Эбигейл живет в городе, границы которого закрыли много лет назад из-за эпидемии загадочной болезни. Отец Эбби был одним из заболевших — и его забрали, когда ей было шесть лет. Пойдя наперекор властям, чтобы разыскать отца, Эбби узнает о том, что ее город на самом деле полон магии. И в ней самой пробуждаются необыкновенные магические способности…

Страна: Россия
Студия: KD Studios
Продолжительность: 01:46:15
Язык: Русский

Файл
Кодек: mpeg2
Качество: BDRemux 1080i
Видео: MPEG-2, 1920x1080, 27000 Kbit/s, 25.000 fps
Звук:
Русский: 48 kHz, AC3, 5.1, 384 Kbps / iTunes
Французкий: 48 kHz/24-bit, DTS-HD MA 5.1 , ~4003 kbps / Дубляж
Английский: 48 kHz/24-bit, DTS-HD MA 5.1 , ~4261 kbps / Дубляж
Субтитры: французкие


[+] MI
General
Unique ID                                : 140266238899909212642904149341599302134 (0x69864B830C6838A1E2930802343601F6)
Complete name                            : C:KINOAbigail.2019.BDRemux.1080i.mkv
Format                                   : Matroska
Format version                           : Version 4
File size                                : 19.8 GiB
Duration                                 : 1 h 46 min
Overall bit rate mode                    : Variable
Overall bit rate                         : 26.6 Mb/s
Movie name                               : Abigail.2019.BDRemux.1080i by Silverok
Encoded date                             : UTC 2020-01-05 19:40:45
Writing application                      : mkvmerge v38.0.0 ('The Silent Type') 64-bit
Writing library                          : libebml v1.3.9 + libmatroska v1.5.2
Cover                                    : Yes
Attachments                              : cover.png

Video
ID                                       : 1
Format                                   : MPEG Video
Format version                           : Version 2
Format profile                           : Main@High
Format settings                          : CustomMatrix / BVOP
Format settings, BVOP                    : Yes
Format settings, Matrix                  : Custom
Format settings, GOP                     : M=3, N=15
Codec ID                                 : V_MPEG2
Codec ID/Info                            : MPEG 1 or 2 Video
Duration                                 : 1 h 46 min
Bit rate mode                            : Variable
Bit rate                                 : 18.0 Mb/s
Maximum bit rate                         : 27.0 Mb/s
Width                                    : 1 920 pixels
Height                                   : 1 080 pixels
Display aspect ratio                     : 16:9
Frame rate mode                          : Constant
Frame rate                               : 25.000 FPS
Standard                                 : Component
Color space                              : YUV
Chroma subsampling                       : 4:2:0
Bit depth                                : 8 bits
Scan type                                : Progressive
Scan order                               : Top Field First
Compression mode                         : Lossy
Bits/(Pixel*Frame)                       : 0.347
Time code of first frame                 : 00:00:00:00
Time code source                         : Group of pictures header
GOP, Open/Closed                         : Open
GOP, Open/Closed of first frame          : Closed
Stream size                              : 13.3 GiB (67%)
Title                                    : BDRemux.1080i by Silverok
Writing library                          : TMPGEnc Video Mastering Works 5 Version. 5.2.3.66
Default                                  : Yes
Forced                                   : No
Color primaries                          : BT.709
Transfer characteristics                 : BT.709
Matrix coefficients                      : BT.709

Audio #1
ID                                       : 2
Format                                   : AC-3
Format/Info                              : Audio Coding 3
Commercial name                          : Dolby Digital
Codec ID                                 : A_AC3
Duration                                 : 1 h 46 min
Bit rate mode                            : Constant
Bit rate                                 : 384 kb/s
Channel(s)                               : 6 channels
Channel layout                           : L R C LFE Ls Rs
Sampling rate                            : 48.0 kHz
Frame rate                               : 31.250 FPS (1536 SPF)
Compression mode                         : Lossy
Stream size                              : 292 MiB (1%)
Title                                    : Русский, iTunes
Language                                 : Russian
Service kind                             : Complete Main
Default                                  : Yes
Forced                                   : No

Audio #2
ID                                       : 3
Format                                   : DTS XLL
Format/Info                              : Digital Theater Systems
Commercial name                          : DTS-HD Master Audio
Codec ID                                 : A_DTS
Duration                                 : 1 h 46 min
Bit rate mode                            : Variable
Bit rate                                 : 4 003 kb/s
Channel(s)                               : 6 channels
Channel layout                           : C L R Ls Rs LFE
Sampling rate                            : 48.0 kHz
Frame rate                               : 93.750 FPS (512 SPF)
Bit depth                                : 24 bits
Compression mode                         : Lossless
Stream size                              : 2.97 GiB (15%)
Language                                 : French
Default                                  : No
Forced                                   : No

Audio #3
ID                                       : 4
Format                                   : DTS XLL
Format/Info                              : Digital Theater Systems
Commercial name                          : DTS-HD Master Audio
Codec ID                                 : A_DTS
Duration                                 : 1 h 46 min
Bit rate mode                            : Variable
Bit rate                                 : 4 261 kb/s
Channel(s)                               : 6 channels
Channel layout                           : C L R Ls Rs LFE
Sampling rate                            : 48.0 kHz
Frame rate                               : 93.750 FPS (512 SPF)
Bit depth                                : 24 bits
Compression mode                         : Lossless
Stream size                              : 3.16 GiB (16%)
Language                                 : English
Default                                  : No
Forced                                   : No

Text
ID                                       : 5
Format                                   : UTF-8
Codec ID                                 : S_TEXT/UTF8
Codec ID/Info                            : UTF-8 Plain Text
Duration                                 : 1 h 41 min
Bit rate                                 : 45 b/s
Count of elements                        : 1044
Stream size                              : 33.9 KiB (0%)
Language                                 : French
Default                                  : No
Forced                                   : No



Скриншоты:
[+] Всего файлов в раздаче - 1:
Abigail.2019.BDRemux.1080i.mkv19.76 GB

Показать еще раздачи по запросу эбигейл:
2020-01-08 U Эбигейл (2019) HDRip от Scarabey | Лицензия 1.40 GB ↑ 158 ↓ 8
2020-01-06 U Эбигейл (2019) BDRip 720p | iTunes 4.50 GB ↑ 155 ↓ 62
2020-01-06 U Эбигейл (2019) BDRip 1080p | iTunes 8.06 GB ↑ 202 ↓ 100
2020-01-06 U Эбигейл (2019) BDRip от MegaPeer | iTunes 1.46 GB ↑ 141 ↓ 35
2019-10-23 U Эбигейл (2019) WEB-DLRip от ExKinoRay | iTunes 748.66 MB ↑ 39 ↓ 7
2019-10-09 U Эбигейл (2019) WEB-DLRip от Scarabey | iTunes 1.44 GB ↑ 327 ↓ 18
2019-10-06 U Эбигейл (2019) WEB-DLRip-AVC от ExKinoRay | iTunes 745.48 MB ↑ 101 ↓ 41

Отзывы
Зарегистрируйтесь чтобы добавить комментарий.
Обратная связь
Copyleft ©