↑↓Torrent.by
Поиск
Логин: Регистрация
Пароль: Восстановить пароль

BBC: Серенгети / Serengeti [01-06 из 06] (2019) WEB-DL 1080p | P1

Скачать bbc-serengeti-01-06-iz-2019-web-dl-1080p-p1.torrent
U Магнитная ссылка Размер: 25.46 GB Раздают: 45 Качают: 34 Добавлен: 2020-01-08 04:06:33
BBC: Серенгети / Serengeti [01-06 из 06] (2019) WEB-DL 1080p | P1

Название: Серенгети
Оригинальное название: Serengeti
Год выхода: 2019
Жанр: Документальный, природа, флора, фауна
Режиссер: Джон Файст

О фильме:
О животных Африки рассказывают много небылиц. Сериал – история, в которой происходят реальные события. Наперекор трудностям матери растят потомство. Настойчивые соперники разбивают семьи. Детеныши пытаются отвоевать свое положение в семье. Все проверяется на прочность силами стихий, сменой сезонов и друг другом. Это история жизни в регионе под названием Серенгети.

Страна: Великобритания
Студия: BBC Scotland
Продолжительность: 3 x ~ 00:58:17
Перевод: Профессиональный (одноголосый закадровый) СВ-Дубль

Файл
Кодек: AVC/H.264
Качество: WEB-DL 1080p
Видео: 1920x1080 (16:9), 25 fps, AVC (Н.264), High@L4, 10 Mb/s, 25fps, 0.193 bit/pixel
Звук:
Русский 48 kHz, AC3 Dolby Digital, 2/0 (L,R) ch, ~192.00 kbps avg
Английский 48 kHz, E-AC3 5.1 (Front: L R C LFE Ls Rs) ch, ~640.00 kbps avg
Субтитры: Русские, английские отключаемые

Семпл

Релиз от: kyba
[+] MediaInfo
Complete name               : M:ТоррентыДокументальныеСеренгети_BBC_1080p�1. S01E01.Destiny.1080p.AMZN.WEB-DL.mkv
Format                      : Matroska
Format version              : Version 4
File size                   : 4.24 GiB
Duration                    : 58 min 17 s
Overall bit rate            : 10.4 Mb/s
Encoded date                : UTC 2020-01-04 04:40:45
Writing application         : mkvmerge v35.0.0 ('All The Love In The World') 32-bit
Writing library             : libebml v1.3.9 + libmatroska v1.5.2

Video
ID                          : 1
Format                      : AVC
Format/Info                 : Advanced Video Codec
Format profile              : High@L4
Format settings             : CABAC / 4 Ref Frames
Format settings, CABAC      : Yes
Format settings, Reference  : 4 frames
Codec ID                    : V_MPEG4/ISO/AVC
Duration                    : 58 min 15 s
Bit rate mode               : Constant
Bit rate                    : 10 000 kb/s
Width                       : 1 920 pixels
Height                      : 1 080 pixels
Display aspect ratio        : 16:9
Frame rate mode             : Constant
Frame rate                  : 25.000 FPS
Color space                 : YUV
Chroma subsampling          : 4:2:0
Bit depth                   : 8 bits
Scan type                   : Progressive
Bits/(Pixel*Frame)          : 0.193
Stream size                 : 3.90 GiB (92%)
Default                     : Yes
Forced                      : No
Color range                 : Limited
Color primaries             : BT.709
Transfer characteristics    : BT.709
Matrix coefficients         : BT.709

Audio #1
ID                          : 2
Format                      : AC-3
Format/Info                 : Audio Coding 3
Commercial name             : Dolby Digital
Codec ID                    : A_AC3
Duration                    : 58 min 17 s
Bit rate mode               : Constant
Bit rate                    : 192 kb/s
Channel(s)                  : 2 channels
Channel layout              : L R
Sampling rate               : 48.0 kHz
Frame rate                  : 31.250 FPS (1536 SPF)
Bit depth                   : 16 bits
Compression mode            : Lossy
Stream size                 : 80.1 MiB (2%)
Language                    : Russian
Service kind                : Complete Main
Default                     : Yes
Forced                      : Yes

Audio #2
ID                          : 3
Format                      : E-AC-3
Format/Info                 : Enhanced AC-3
Commercial name             : Dolby Digital Plus
Codec ID                    : A_EAC3
Duration                    : 58 min 15 s
Bit rate mode               : Constant
Bit rate                    : 640 kb/s
Channel(s)                  : 6 channels
Channel layout              : L R C LFE Ls Rs
Sampling rate               : 48.0 kHz
Frame rate                  : 31.250 FPS (1536 SPF)
Compression mode            : Lossy
Stream size                 : 267 MiB (6%)
Language                    : English
Service kind                : Complete Main
Default                     : No
Forced                      : No

Text #1
ID                          : 4
Format                      : UTF-8
Codec ID                    : S_TEXT/UTF8
Codec ID/Info               : UTF-8 Plain Text
Duration                    : 58 min 6 s
Bit rate                    : 48 b/s
Count of elements           : 385
Stream size                 : 20.6 KiB (0%)
Title                       : СВ-Дубль
Language                    : Russian
Default                     : No
Forced                      : No

Text #2
ID                          : 5
Format                      : UTF-8
Codec ID                    : S_TEXT/UTF8
Codec ID/Info               : UTF-8 Plain Text
Duration                    : 57 min 24 s
Bit rate                    : 24 b/s
Count of elements           : 299
Stream size                 : 10.5 KiB (0%)
Language                    : English
Default                     : No
Forced                      : No



[+] Содержание

01. Destiny / Судьба
Эта история начинается после сезона дождей – сезона плодородия, когда жизнь должна проходить легко. Но в Серенгети легко не бывает никогда. Судьба готовит героям тяжелые испытания...
02. Conflict / Конфликт
Сезон плодородия подходит к концу. Животные вынуждены искать лучшие места для пропитания. Конкуренция растет. А чем выше конкуренция, тем больше конфликтов...
03. Invasion / Вторжение
С возвращением дождей равнины Серенгети превращаются в сочные зеленые пастбища. Наши герои с нетерпением ожидают нашествия огромного количества травоядных животных – великую миграцию.
04. Misfortune / Несчастье (Злоключения)
Великая миграция продолжается, обеспечивая нашим героям сытую жизнь. Но обилие еды не избавляет от выпадающих на их долю злоключений...
05. Exodus / Исход
Засуха объяла все земли. От жары и пыли нигде не скрыться. Земля сожжённая и сухая. Озеро испарилось. Мир вокруг стал пустошью. Стадам нет больше смысла здесь оставаться. Надо бежать.
06. Rebirth / Возрождение
После сезона дождей реки и озёра наполняются водой, которая преображает всё вокруг. Земля возрождается, а вместе с ней возрождается и жизнь. Здесь, в Серенгети, совершается вечный цикл жизни, смерти и возрождения.



Скриншоты:
[+] Всего файлов в раздаче - 6:
01. S01E01.Destiny.1080p.AMZN.WEB-DL.mkv4.24 GB
02. S01E02.Conflict.1080p.AMZN.WEB-D..mkv4.19 GB
03. S01E03.Invasion.1080p.AMZN.WEB-DL.mkv4.24 GB
04. S01E04.Misfortune.1080p.AMZN.WEB-DL.mkv4.18 GB
05. S01E05.Exodus.1080p.AMZN.WEB-DL.mkv4.39 GB
06. S01E06.Rebirth.1080p.AMZN.WEB-DL.mkv4.23 GB

Похожие раздачи по запросу - серенгети:
2020-01-09 U BBC: Серенгети / Serengeti [01-06 из 06] (2019) DVB | P1 10.09 GB ↑ 30 ↓ 14

Отзывы
Зарегистрируйтесь чтобы добавить комментарий.
Обратная связь
Copyleft ©