↑↓torrent.by
Поиск
Логин: Регистрация
Пароль: Восстановить пароль

Жил-был пёс (1982) WEBRip 720p

Скачать zhil-byl-pes-1982-webrip-720p.torrent
U Магнитная ссылка Размер: 300.30 MB Раздают: 249 Качают: 45 Добавлен: 2020-01-08 18:16:08
Жил-был пёс (1982) WEBRip 720p

Название: Жил-был пёс
Год выхода: 1982
Жанр:  Мультфильм
Режиссер: Эдуард Назаров
В ролях: Георгий Бурков, Армен Джигарханян, Эдуард Назаров

О фильме:
Жил-был пёс. Верно служил, но выгнали его по старости. И решил он повеситься, да повстречал в лесу такого же старого волка…

Страна: СССР
Студия: Союзмультфильм
Продолжительность: 00:10:00
Язык: Русский

Файл                                      
Формат: Matroska
Качество: WEBRip 720p
Видео: 968x722 at 25.00 fps, x264, ~4000 kbps,  0.229 bpp
Аудио: AC3, 2 ch, ~192 kbps - | Русский | -

***Релиз от: -=DoMiNo=-


[+] M/I
General
Complete name               : C:Жил-был пёс.(1982).WEB-DLRip-AVC.(4x3).[-=DoMiNo=-].mkv
Format                      : Matroska
Format version              : Version 4
File size                   : 300 MiB
Duration                    : 10 min 0 s
Overall bit rate            : 4 198 kb/s
Attachments                 : poster / poster
Language                    : und

Video
ID                          : 1
Format                      : AVC
Format/Info                 : Advanced Video Codec
Format profile              : High@L4.1
Format settings             : CABAC / 11 Ref Frames
Format settings, CABAC      : Yes
Format settings, Reference  : 11 frames
Codec ID                    : V_MPEG4/ISO/AVC
Duration                    : 10 min 0 s
Bit rate                    : 4 000 kb/s
Width                       : 968 pixels
Height                      : 722 pixels
Display aspect ratio        : 4:3
Frame rate mode             : Constant
Frame rate                  : 25.000 FPS
Color space                 : YUV
Chroma subsampling          : 4:2:0
Bit depth                   : 8 bits
Scan type                   : Progressive
Bits/(Pixel*Frame)          : 0.229
Stream size                 : 281 MiB (93%)
Title                       : RIP_BY_-=DoMiNo=-
Writing library             : x264 core 157 r2958 57baac4
Encoding settings           : cabac=1 / ref=11 / deblock=1:-3:-3 / analyse=0x3:0x133 / me=umh / subme=11 / psy=1 / psy_rd=1.00:0.00 / mixed_ref=1 / me_range=32 / chroma_me=1 / trellis=2 / 8x8dct=1 / cqm=0 / deadzone=21,11 / fast_pskip=0 / chroma_qp_offset=-2 / threads=6 / lookahead_threads=1 / sliced_threads=0 / nr=0 / decimate=0 / interlaced=0 / bluray_compat=0 / constrained_intra=0 / bframes=16 / b_pyramid=2 / b_adapt=2 / b_bias=0 / direct=3 / weightb=1 / open_gop=0 / weightp=2 / keyint=250 / keyint_min=25 / scenecut=40 / intra_refresh=0 / rc_lookahead=100 / rc=2pass / mbtree=1 / bitrate=4000 / ratetol=1.0 / qcomp=0.80 / qpmin=0 / qpmax=69 / qpstep=4 / cplxblur=20.0 / qblur=0.5 / vbv_maxrate=50000 / vbv_bufsize=62500 / nal_hrd=none / filler=0 / ip_ratio=1.40 / aq=1:1.00
Default                     : Yes
Forced                      : No

Audio
ID                          : 2
Format                      : AC-3
Format/Info                 : Audio Coding 3
Commercial name             : Dolby Digital
Codec ID                    : A_AC3
Duration                    : 10 min 0 s
Bit rate mode               : Constant
Bit rate                    : 192 kb/s
Channel(s)                  : 2 channels
Channel layout              : L R
Sampling rate               : 48.0 kHz
Frame rate                  : 31.250 FPS (1536 SPF)
Bit depth                   : 32 bits
Compression mode            : Lossy
Stream size                 : 13.7 MiB (5%)
Service kind                : Complete Main
Default                     : Yes
Forced                      : No

Menu
00:00:00.000                : :Глава 1
00:01:28.080                : :Глава 2
00:02:44.080                : :Глава 3
00:04:06.080                : :Глава 4
00:05:16.080                : :Глава 5
00:06:46.080                : :Глава 6
00:08:00.080                : :Глава 7
00:08:58.080                : :Глава 8



Скриншоты:
[+] Всего файлов в раздаче - 1:
Жил-был пёс.(1982).WEB-DLRip-AVC.(4x3).[-=DoMiNo=-].mkv300.30 MB

Показать еще раздачи по запросу webrip:
Вчера U Токсичная любовь [01-02 из 02] (2019) WEBRip от GeneralFilm 2.18 GB ↑ 250 ↓ 107
Вчера U Токсичная любовь [01-02 из 02] (2019) WEBRip-AVC от Files-х 2.26 GB ↑ 66 ↓ 20
Вчера U Волны / Waves (2019) WEBRip | LakeFilms 1.61 GB ↑ 24 ↓ 4
Вчера U Волны / Waves (2019) WEBRip 1080p | LakeFilms 4.87 GB ↑ 29 ↓ 5
Вчера U Легенда Феррари [01-12 из 12] (2019) WEBRip от Files-x 7.16 GB ↑ 49 ↓ 33
Вчера U Легенда Феррари [01-12 из 12] (2019) WEBRip 720p от ExKinoRay 14.67 GB ↑ 51 ↓ 61
2020-01-25 U Легенда Феррари [01х01-12 из 16] (2019) WEBRip-AVC 8.71 GB ↑ 3 ↓ 1

Отзывы
Зарегистрируйтесь чтобы добавить комментарий.
Обратная связь
Copyleft ©