↑↓torrent.by
Поиск
Логин: Регистрация
Пароль: Восстановить пароль

Француз (2019) WEB-DLRip | iTunes

Скачать francuz-2019-web-dlrip-itunes.torrent
U Магнитная ссылка Размер: 1.45 GB Раздают: 144 Качают: 53 Добавлен: 2020-01-09 06:34:41
Француз (2019) WEB-DLRip | iTunes

Название: Француз
Год выхода: 2019
Жанр: История, драма
Страна: Россия
Перевод: Не требуется
Продолжительность: 02:08:20
Режиссер: Андрей Смирнов
В ролях: Антон Риваль, Евгения Образцова, Александр Балуев, Евгений Ткачук, Михаил Ефремов, Роман Мадянов, Нина Дробышева, Наталья Тенякова, Лилия Багирова, Люси Арон и др.

О фильме: Картина посвящена памяти Александра Гинзбурга — одного из первых советских диссидентов. В 1957 году французский студент Пьер Дюран приезжает в Москву на стажировку в МГУ. Здесь он знакомится с балериной Большого театра Кирой Галкиной и фотографом Валерой Успенским. Благодаря этим знакомствам, Пьер погружается в культурную жизнь Москвы, не только официальную, но и подпольную. За год в Москве Пьер проживает целую жизнь, совершенно не похожую на всё, что он знал. Но стажировка и знакомство с разными сторонами быта советских людей — не единственная цель Пьера. Он ищет своего отца, белого офицера Татищева, который был арестован в конце 30-х.

Файл
Формат: AVI
Качество: WEB-DLRip
Видео: Xvid 73, 704x384, ~1414 kbps, 24,000 fps
Звук: русский, AC3, 2.0 ch, 48 kHz, 192 kbps
Субтитры: русские (форс. вшитые)

Рип и релиз от:


[+] MI
Общее
Полное имя                               : G:Torrent2FrancuzWEBDLRip.avi
Формат                                   : AVI
Формат/Информация                        : Audio Video Interleave
Профиль формата                          : OpenDML
Размер файла                             : 1,45 Гбайт
Продолжительность                        : 2 ч. 8 м.
Общий поток                              : 1617 Кбит/сек
Программа кодирования                    : XviD4PSP 6.0 / 53.6.0

Видео
Идентификатор                            : 0
Формат                                   : MPEG-4 Visual
Профиль формата                          : Advanced Simple@L5
Настройки формата                        : BVOP1 / Custom Matrix
Параметр BVOP формата                    : 1
Параметр QPel формата                    : Нет
Параметр GMC формата                     : Без точки перехода
Параметр матрицы формата                 : Выборочная
Идентификатор кодека                     : XVID
Идентификатор кодека/Подсказка           : XviD
Продолжительность                        : 2 ч. 8 м.
Битрейт                                  : 1414 Кбит/сек
Ширина                                   : 704 пикселя
Высота                                   : 384 пикселя
Соотношение сторон                       : 1,85:1
Частота кадров                           : 24,000 кадра/сек
Цветовое пространство                    : YUV
Субдискретизация насыщенности            : 4:2:0
Битовая глубина                          : 8 бит
Тип развёртки                            : Прогрессивная
Метод сжатия                             : С потерями
Бит/(Пиксели*Кадры)                      : 0.218
Размер потока                            : 1,27 Гбайт (87%)
Библиотека кодирования                   : XviD 73

Аудио
Идентификатор                            : 1
Формат                                   : AC-3
Формат/Информация                        : Audio Coding 3
Параметр Endianness формата              : Big
Идентификатор кодека                     : 2000
Продолжительность                        : 2 ч. 8 м.
Вид битрейта                             : Постоянный
Битрейт                                  : 192 Кбит/сек
Каналы                                   : 2 канала
Расположение каналов                     : Front: L R
Частота                                  : 48,0 КГц
Частота кадров                           : 31,250 кадров/сек (1536 SPF)
Битовая глубина                          : 16 бит
Метод сжатия                             : С потерями
Размер потока                            : 176 Мбайт (12%)
Выравнивание                             : Соединение по промежуткам
Продолжительность промежутка             : 32  мс. (0,77 видеокадр)




Скриншоты:
[+] Всего файлов в раздаче - 1:
FrancuzWEBDLRip.avi1.45 GB

Похожие раздачи по запросу - француз:
2020-01-12 U Француз (2019) WEB-DLRip от Scarabey | iTunes 1.45 GB ↑ 94 ↓ 18
2020-01-11 U Француз (2019) WEB-DLRip от Portablius | iTunes 796.85 MB ↑ 43 ↓ 8
2020-01-09 U Француз (2019) WEB-DLRip-AVC | iTunes 2.04 GB ↑ 137 ↓ 13
2020-01-09 U Француз (2019) WEB-DLRip от GeneralFilm | iTunes 1.46 GB ↑ 119 ↓ 48
2020-01-09 U Француз (2019) WEB-DLRip-AVC | iTunes 2.18 GB ↑ 61 ↓ 22
2020-01-09 U Француз (2019) WEB-DL 1080p | iTunes 5.00 GB ↑ 150 ↓ 47

Отзывы
Зарегистрируйтесь чтобы добавить комментарий.
Обратная связь
Copyleft ©