↑↓torrent.by
Поиск
Логин: Регистрация
Пароль: Восстановить пароль

Француз (2019) WEB-DL 1080p | iTunes

Скачать francuz-2019-web-dl-1080p-itunes.torrent
U Магнитная ссылка Размер: 5.00 GB Раздают: 150 Качают: 47 Добавлен: 2020-01-09 06:35:01
Француз (2019) WEB-DL 1080p | iTunes

Название: Француз
Год выхода: 2019
Жанр: История, драма
Страна: Россия
Перевод: Не требуется
Продолжительность: 02:08:20
Режиссер: Андрей Смирнов
В ролях: Антон Риваль, Евгения Образцова, Александр Балуев, Евгений Ткачук, Михаил Ефремов, Роман Мадянов, Нина Дробышева, Наталья Тенякова, Лилия Багирова, Люси Арон и др.

О фильме: Картина посвящена памяти Александра Гинзбурга — одного из первых советских диссидентов. В 1957 году французский студент Пьер Дюран приезжает в Москву на стажировку в МГУ. Здесь он знакомится с балериной Большого театра Кирой Галкиной и фотографом Валерой Успенским. Благодаря этим знакомствам, Пьер погружается в культурную жизнь Москвы, не только официальную, но и подпольную. За год в Москве Пьер проживает целую жизнь, совершенно не похожую на всё, что он знал. Но стажировка и знакомство с разными сторонами быта советских людей — не единственная цель Пьера. Он ищет своего отца, белого офицера Татищева, который был арестован в конце 30-х.

Файл
Качество: WEB-DL 1080p
Видео: MPEG-4 AVC, 1920x1038, 5187 kbps, 24,000 fps
Звук: русский, AC3, 5.1 ch, 48 kHz, 384 kbps
Субтитры: русские (форс.)

Релиз:


[+] MI
Общее
Уникальный идентификатор                 : 216985877947531824252398347169796835869 (0xA33DF5C190DBDFB3B478610BB575CA1D)
Полное имя                               : G:Torrent2FrancuzWEBDL1080p.mkv
Формат                                   : Matroska
Версия формата                           : Version 4 / Version 2
Размер файла                             : 5,00 Гбайт
Продолжительность                        : 2 ч. 8 м.
Общий поток                              : 5573 Кбит/сек
Дата кодирования                         : UTC 2020-01-08 20:33:44
Программа кодирования                    : mkvmerge v9.5.0 ('Quiet Fire') 64bit
Библиотека кодирования                   : libebml v1.3.4 + libmatroska v1.4.5

Видео
Идентификатор                            : 1
Формат                                   : AVC
Формат/Информация                        : Advanced Video Codec
Профиль формата                          : High@L4
Настройки формата                        : CABAC / 4 Ref Frames
Параметр CABAC формата                   : Да
Параметр RefFrames формата               : 4 кадра
Идентификатор кодека                     : V_MPEG4/ISO/AVC
Продолжительность                        : 2 ч. 8 м.
Битрейт                                  : 5187 Кбит/сек
Ширина                                   : 1920 пикселей
Высота                                   : 1038 пикселей
Соотношение сторон                       : 1,85:1
Режим частоты кадров                     : Постоянный
Частота кадров                           : 24,000 кадра/сек
Цветовое пространство                    : YUV
Субдискретизация насыщенности            : 4:2:0
Битовая глубина                          : 8 бит
Тип развёртки                            : Прогрессивная
Бит/(Пиксели*Кадры)                      : 0.108
Размер потока                            : 4,65 Гбайт (93%)
Язык                                     : English
Default                                  : Да
Forced                                   : Нет
Цветовой диапазон                        : Limited
Основные цвета                           : BT.709
Характеристики трансфера                 : BT.709
Коэффициенты матрицы                     : BT.709

Аудио
Идентификатор                            : 2
Формат                                   : AC-3
Формат/Информация                        : Audio Coding 3
Параметр Endianness формата              : Big
Идентификатор кодека                     : A_AC3
Продолжительность                        : 2 ч. 8 м.
Вид битрейта                             : Постоянный
Битрейт                                  : 384 Кбит/сек
Каналы                                   : 6 каналов
Расположение каналов                     : Front: L C R, Side: L R, LFE
Частота                                  : 48,0 КГц
Частота кадров                           : 31,250 кадров/сек (1536 SPF)
Битовая глубина                          : 16 бит
Метод сжатия                             : С потерями
Размер потока                            : 352 Мбайт (7%)
Язык                                     : Russian
Default                                  : Да
Forced                                   : Нет

Текст
Идентификатор                            : 3
Формат                                   : UTF-8
Идентификатор кодека                     : S_TEXT/UTF8
Идентификатор кодека/Информация          : UTF-8 Plain Text
Продолжительность                        : 49 м. 37 с.
Битрейт                                  : 23 бит/сек
ElementCount                             : 123
Размер потока                            : 8,54 Кбайт (0%)
Заголовок                                : rusForced
Язык                                     : Russian
Default                                  : Да
Forced                                   : Нет

Меню
00:00:00.000                             : en:Глава 1
00:05:34.916                             : en:Глава 2
00:15:17.874                             : en:Глава 3
00:21:35.415                             : en:Глава 4
00:30:21.373                             : en:Глава 5
00:35:18.748                             : en:Глава 6
00:39:51.206                             : en:Глава 7
00:48:39.289                             : en:Глава 8
00:57:32.039                             : en:Глава 9
01:03:40.789                             : en:Глава 10
01:07:56.914                             : en:Глава 11
01:14:49.080                             : en:Глава 12
01:24:02.621                             : en:Глава 13
01:30:14.496                             : en:Глава 14
01:50:15.329                             : en:Глава 15
02:01:43.287                             : en:Глава 16




Скриншоты:
[+] Всего файлов в раздаче - 1:
FrancuzWEBDL1080p.mkv5.00 GB

Похожие раздачи по запросу - француз:
2020-01-12 U Француз (2019) WEB-DLRip от Scarabey | iTunes 1.45 GB ↑ 94 ↓ 18
2020-01-11 U Француз (2019) WEB-DLRip от Portablius | iTunes 796.85 MB ↑ 43 ↓ 8
2020-01-09 U Француз (2019) WEB-DLRip-AVC | iTunes 2.04 GB ↑ 137 ↓ 13
2020-01-09 U Француз (2019) WEB-DLRip от GeneralFilm | iTunes 1.46 GB ↑ 119 ↓ 48
2020-01-09 U Француз (2019) WEB-DLRip-AVC | iTunes 2.18 GB ↑ 61 ↓ 22
2020-01-09 U Француз (2019) WEB-DLRip | iTunes 1.45 GB ↑ 144 ↓ 53

Отзывы
Зарегистрируйтесь чтобы добавить комментарий.
Обратная связь
Copyleft ©