↑↓torrent.by
Поиск
Логин: Регистрация
Пароль: Восстановить пароль

Француз (2019) WEB-DLRip-AVC | iTunes

Скачать francuz-2019-web-dlrip-avc-itunes.torrent
U Магнитная ссылка Размер: 2.18 GB Раздают: 61 Качают: 22 Добавлен: 2020-01-09 06:35:24
Француз (2019) WEB-DLRip-AVC | iTunes

Название: Француз
Год выпуска: 2019
Жанр:  История, драма
Режиссёр: Андрей Смирнов
В ролях: Антон Риваль, Евгения Образцова, Александр Балуев, Евгений Ткачук, Михаил Ефремов, Роман Мадянов, Нина Дробышева, Наталья Тенякова, Лилия Багирова, Люси Арон

Описание:
В 1957 году французский студент Пьер Дюран приезжает в Москву на стажировку в МГУ. Здесь он знакомится с балериной Большого театра Кирой Галкиной и фотографом Валерой Успенским. Благодаря этим знакомствам, Пьер погружается в культурную жизнь Москвы, не только официальную, но и подпольную. За год в Москве Пьер проживает целую жизнь, совершенно не похожую на всё, что он знал. Но стажировка и знакомство с разными сторонами быта советских людей — не единственная цель Пьера. Он ищет своего отца, белого офицера Татищева, который был арестован в конце 30-х.

Страна: Россия
Студия: Мармот-фильм
Продолжительность: 02:08:20
Перевод: Не требуется

Файл
Формат: MKV
Качество: WEB-DLRip-AVC
Видео: 1024х554 (1,85:1), 24 fps, MPEG-4 AVC ~ 2045 Кbps avg, 0.150 bit/pixel
Аудио: AC3, 48 kHz, 6 ch, ~384.00 kbps avg | русский | iTunes

Субтитры: Русские (форсированные)


[+] Инфо-файл
Общее
Уникальный идентификатор                 : 278142869404523331713935033127229333764 (0xD1405E3BD3DA63B29E6C518E331E2104)
Полное имя                               : Francuz.2019.RUS.WEB-DLRip.x264.mkv
Формат                                   : Matroska
Версия формата                           : Version 4
Размер файла                             : 2,18 Гбайт
Продолжительность                        : 2 ч. 8 м.
Общий поток                              : 2430 Кбит/сек
Название фильма                          : Француз (2019)
Дата кодирования                         : UTC 2020-01-08 23:43:50
Программа кодирования                    : mkvmerge v41.0.0 ('Smarra') 64-bit
Библиотека кодирования                   : libebml v1.3.9 + libmatroska v1.5.2
Обложка                                  : Yes
Attachments                              : cover.jpg

Видео
Идентификатор                            : 1
Формат                                   : AVC
Формат/Информация                        : Advanced Video Codec
Профиль формата                          : High@L4.1
Настройки формата                        : CABAC / 9 Ref Frames
Параметр CABAC формата                   : Да
Параметр RefFrames формата               : 9 кадров
Идентификатор кодека                     : V_MPEG4/ISO/AVC
Продолжительность                        : 2 ч. 8 м.
Битрейт                                  : 2045 Кбит/сек
Ширина                                   : 1024 пикселя
Высота                                   : 554 пикселя
Соотношение сторон                       : 1,85:1
Режим частоты кадров                     : Постоянный
Частота кадров                           : 24,000 кадра/сек
Цветовое пространство                    : YUV
Субдискретизация насыщенности            : 4:2:0
Битовая глубина                          : 8 бит
Тип развёртки                            : Прогрессивная
Бит/(Пиксели*Кадры)                      : 0.150
Размер потока                            : 1,83 Гбайт (84%)
Заголовок                                : #stillet
Библиотека кодирования                   : x264 core 152 r2851bm ba24899
Настройки программы                      : cabac=1 / ref=9 / deblock=1:-2:-2 / analyse=0x3:0x133 / me=umh / subme=10 / psy=1 / psy_rd=1.00:0.15 / mixed_ref=1 / me_range=32 / chroma_me=1 / trellis=2 / 8x8dct=1 / cqm=0 / deadzone=21,11 / fast_pskip=0 / chroma_qp_offset=-3 / threads=16 / lookahead_threads=3 / sliced_threads=0 / nr=0 / decimate=0 / interlaced=0 / bluray_compat=0 / constrained_intra=0 / bframes=10 / b_pyramid=2 / b_adapt=2 / b_bias=0 / direct=3 / weightb=1 / open_gop=0 / weightp=2 / keyint=240 / keyint_min=23 / scenecut=40 / intra_refresh=0 / rc=2pass / mbtree=0 / bitrate=2045 / ratetol=1.0 / qcomp=0.60 / qpmin=0 / qpmax=69 / qpstep=4 / cplxblur=20.0 / qblur=0.5 / ip_ratio=1.40 / pb_ratio=1.30 / aq=1:1.00
Язык                                     : Rundi
Default                                  : Да
Forced                                   : Нет

Аудио
Идентификатор                            : 2
Формат                                   : AC-3
Формат/Информация                        : Audio Coding 3
Коммерческое название                    : Dolby Digital
Идентификатор кодека                     : A_AC3
Продолжительность                        : 2 ч. 8 м.
Вид битрейта                             : Постоянный
Битрейт                                  : 384 Кбит/сек
Каналы                                   : 6 каналов
ChannelLayout                            : L R C LFE Ls Rs
Частота                                  : 48,0 КГц
Частота кадров                           : 31,250 кадров/сек (1536 SPF)
Метод сжатия                             : С потерями
Размер потока                            : 352 Мбайт (16%)
Заголовок                                : iTunes
Язык                                     : Russian
Default                                  : Да
Forced                                   : Нет

Текст
Идентификатор                            : 3
Формат                                   : UTF-8
Идентификатор кодека                     : S_TEXT/UTF8
Идентификатор кодека/Информация          : UTF-8 Plain Text
Продолжительность                        : 49 м. 37 с.
Битрейт                                  : 23 бит/сек
ElementCount                             : 123
Размер потока                            : 8,54 Кбайт (0%)
Заголовок                                : rusForced
Язык                                     : Russian
Default                                  : Да
Forced                                   : Нет

Меню
00:00:00.000                             : en:Глава 1
00:05:34.916                             : en:Глава 2
00:15:17.874                             : en:Глава 3
00:21:35.415                             : en:Глава 4
00:30:21.373                             : en:Глава 5
00:35:18.748                             : en:Глава 6
00:39:51.206                             : en:Глава 7
00:48:39.289                             : en:Глава 8
00:57:32.039                             : en:Глава 9
01:03:40.789                             : en:Глава 10
01:07:56.914                             : en:Глава 11
01:14:49.080                             : en:Глава 12
01:24:02.621                             : en:Глава 13
01:30:14.496                             : en:Глава 14
01:50:15.329                             : en:Глава 15
02:01:43.287                             : en:Глава 16




Скриншоты:
[+] Всего файлов в раздаче - 1:
Francuz.2019.RUS.WEB-DLRip.x264.mkv2.18 GB

Похожие раздачи по запросу - француз:
2020-01-12 U Француз (2019) WEB-DLRip от Scarabey | iTunes 1.45 GB ↑ 94 ↓ 18
2020-01-11 U Француз (2019) WEB-DLRip от Portablius | iTunes 796.85 MB ↑ 43 ↓ 8
2020-01-09 U Француз (2019) WEB-DLRip-AVC | iTunes 2.04 GB ↑ 137 ↓ 13
2020-01-09 U Француз (2019) WEB-DLRip от GeneralFilm | iTunes 1.46 GB ↑ 119 ↓ 48
2020-01-09 U Француз (2019) WEB-DL 1080p | iTunes 5.00 GB ↑ 150 ↓ 47
2020-01-09 U Француз (2019) WEB-DLRip | iTunes 1.45 GB ↑ 144 ↓ 53

Отзывы
Зарегистрируйтесь чтобы добавить комментарий.
Обратная связь
Copyleft ©