↑↓torrent.by
Поиск
Логин: Регистрация
Пароль: Восстановить пароль

Сказания Земноморья / Tales from Earthsea (2006) BDRip-HEVC 1080p от HEVC-CLUB | D

Скачать skazaniya-zemnomorya-tales-from-earthsea-2006-bdrip-hevc-1080p-ot-club-d.torrent
U Магнитная ссылка Размер: 4.67 GB Раздают: 30 Качают: 4 Добавлен: 2020-01-09 06:36:56
Сказания Земноморья / Tales from Earthsea (2006) BDRip-HEVC 1080p от HEVC-CLUB | D

Год выхода:  2006
Страна / Студия: Япония / Buena Vista Home Entertainment, DENTSU Music And Entertainment, GNDHDDT
Жанр:  аниме, мультфильм, фэнтези, приключения
Продолжительность: 01:55:32
Перевод: Дублированный

Режиссер: Горо Миядзаки

Описание: Земноморье в опасности, мир волшебства на грани исчезновения. Вселенское равновесие нарушено: драконы, обитающие в западном пределе сказочной страны, неожиданно появляются на востоке во владениях людей. Верховный маг Гед отправляется на поиски первопричины беды. В пути он встречает Аррена, принца Энлада, который после убийства отца бежит из родного края, преследуемый тенью.

Качество: BDRip 1080p
Видео: HEVC/H.265, 1920x1036, ~4439 Kbps
Аудио 1: AC3, 6 ch, 448 Kbps - Русский, дублированный (RUSCIСO)
Аудио 2: AC3, 6 ch, 448 Kbps - Английский
Аудио 3: AC3, 6 ch, 448 Kbps - Японский
Субтитры: Русские, английские

Релиз:


[+] Mediainfo
Общее
Уникальный идентификатор                 : 308821609420370578323706785929850595020 (0xE854E0E5BF21FF31B7E4C36F636926CC)
Полное имя                               : R:Tales from Earthsea (2006) BDRip 1080p [HEVC].mkv
Формат                                   : Matroska
Версия формата                           : Version 4 / Version 2
Размер файла                             : 4,67 Гбайт
Продолжительность                        : 1 ч. 55 м.
Общий поток                              : 5785 Кбит/сек
Название фильма                          : Tales from Earthsea (2006)
Дата кодирования                         : UTC 2020-01-01 10:37:27
Программа кодирования                    : mkvmerge v40.0.0 ('Old Town Road + Pony') 64-bit
Библиотека кодирования                   : libebml v1.3.9 + libmatroska v1.5.2
Обложка                                  : Yes
Attachments                              : cover.jpg

Видео
Идентификатор                            : 1
Формат                                   : HEVC
Формат/Информация                        : High Efficiency Video Coding
Профиль формата                          : Main 10@L4.1@High
Идентификатор кодека                     : V_MPEGH/ISO/HEVC
Продолжительность                        : 1 ч. 55 м.
Битрейт                                  : 4439 Кбит/сек
Ширина                                   : 1920 пикселей
Высота                                   : 1036 пикселей
Соотношение сторон                       : 1,85:1
Режим частоты кадров                     : Постоянный
Частота кадров                           : 23,976 (23976/1000) кадра/сек
Частота кадров в оригинале               : 23,976 (24000/1001) кадра/сек
Цветовое пространство                    : YUV
Субдискретизация насыщенности            : 4:2:0
Битовая глубина                          : 10 бит
Бит/(Пиксели*Кадры)                      : 0.093
Размер потока                            : 3,58 Гбайт (77%)
Библиотека кодирования                   : x265 3.2.1+1-b5c86a64bbbe:[Windows][MSVC 1923][64 bit] 10bit
Настройки программы                      : cpuid=1111039 / frame-threads=3 / numa-pools=12 / wpp / no-pmode / no-pme / no-psnr / no-ssim / log-level=2 / input-csp=1 / input-res=1920x1036 / interlace=0 / total-frames=166219 / level-idc=41 / high-tier=1 / uhd-bd=0 / ref=5 / no-allow-non-conformance / no-repeat-headers / annexb / no-aud / no-hrd / info / hash=0 / no-temporal-layers / open-gop / min-keyint=23 / keyint=240 / gop-lookahead=0 / bframes=10 / b-adapt=2 / b-pyramid / bframe-bias=0 / rc-lookahead=60 / lookahead-slices=4 / scenecut=40 / radl=0 / no-splice / no-intra-refresh / ctu=32 / min-cu-size=8 / rect / amp / max-tu-size=32 / tu-inter-depth=4 / tu-intra-depth=4 / limit-tu=1 / rdoq-level=2 / dynamic-rd=0.00 / no-ssim-rd / signhide / no-tskip / nr-intra=0 / nr-inter=0 / no-constrained-intra / no-strong-intra-smoothing / max-merge=4 / limit-refs=2 / limit-modes / me=3 / subme=7 / merange=57 / temporal-mvp / no-hme / weightp / weightb / no-analyze-src-pics / deblock=-3:-3 / no-sao / no-sao-non-deblock / rd=6 / selective-sao=0 / no-early-skip / no-rskip / no-fast-intra / no-tskip-fast / no-cu-lossless / no-b-intra / no-splitrd-skip / rdpenalty=0 / psy-rd=2.00 / psy-rdoq=1.00 / no-rd-refine / no-lossless / cbqpoffs=0 / crqpoffs=0 / rc=crf / crf=19.0 / qcomp=0.60 / qpstep=4 / stats-write=0 / stats-read=0 / vbv-maxrate=50000 / vbv-bufsize=50000 / vbv-init=0.9 / crf-max=0.0 / crf-min=0.0 / ipratio=1.40 / pbratio=1.30 / aq-mode=1 / aq-strength=1.00 / no-cutree / zone-count=0 / no-strict-cbr / qg-size=32 / no-rc-grain / qpmax=69 / qpmin=0 / no-const-vbv / sar=1 / overscan=0 / videoformat=5 / range=0 / colorprim=1 / transfer=1 / colormatrix=1 / chromaloc=0 / display-window=0 / cll=0,0 / min-luma=0 / max-luma=1023 / log2-max-poc-lsb=8 / vui-timing-info / vui-hrd-info / slices=1 / no-opt-qp-pps / no-opt-ref-list-length-pps / no-multi-pass-opt-rps / scenecut-bias=0.05 / no-opt-cu-delta-qp / no-aq-motion / no-hdr / no-hdr-opt / no-dhdr10-opt / no-idr-recovery-sei / analysis-reuse-level=5 / scale-factor=0 / refine-intra=0 / refine-inter=0 / refine-mv=1 / refine-ctu-distortion=0 / no-limit-sao / ctu-info=0 / no-lowpass-dct / refine-analysis-type=0 / copy-pic=1 / max-ausize-factor=1.0 / no-dynamic-refine / no-single-sei / no-hevc-aq / no-svt / no-field / qp-adaptation-range=1.00
Default                                  : Да
Forced                                   : Нет
Цветовой диапазон                        : Limited
Основные цвета                           : BT.709
Характеристики трансфера                 : BT.709
Коэффициенты матрицы                     : BT.709

Аудио #1
Идентификатор                            : 2
Формат                                   : AC-3
Формат/Информация                        : Audio Coding 3
Идентификатор кодека                     : A_AC3
Продолжительность                        : 1 ч. 55 м.
Вид битрейта                             : Постоянный
Битрейт                                  : 448 Кбит/сек
Каналы                                   : 6 каналов
Расположение каналов                     : Front: L C R, Side: L R, LFE
Частота                                  : 48,0 КГц
Частота кадров                           : 31,250 кадров/сек (1536 SPF)
Битовая глубина                          : 16 бит
Метод сжатия                             : С потерями
Размер потока                            : 370 Мбайт (8%)
Заголовок                                : Dub | DD 5.1 @ 448 kbps - RUSCIKO
Язык                                     : Russian
ServiceKind/Strin                        : Complete Main
Default                                  : Да
Forced                                   : Да

Аудио #2
Идентификатор                            : 3
Формат                                   : AC-3
Формат/Информация                        : Audio Coding 3
Идентификатор кодека                     : A_AC3
Продолжительность                        : 1 ч. 55 м.
Вид битрейта                             : Постоянный
Битрейт                                  : 448 Кбит/сек
Каналы                                   : 6 каналов
Расположение каналов                     : Front: L C R, Side: L R, LFE
Частота                                  : 48,0 КГц
Частота кадров                           : 31,250 кадров/сек (1536 SPF)
Битовая глубина                          : 16 бит
Метод сжатия                             : С потерями
Размер потока                            : 370 Мбайт (8%)
Заголовок                                : DD 5.1 @ 448 kbps
Язык                                     : English
ServiceKind/Strin                        : Complete Main
Default                                  : Нет
Forced                                   : Нет

Аудио #3
Идентификатор                            : 4
Формат                                   : AC-3
Формат/Информация                        : Audio Coding 3
Идентификатор кодека                     : A_AC3
Продолжительность                        : 1 ч. 55 м.
Вид битрейта                             : Постоянный
Битрейт                                  : 448 Кбит/сек
Каналы                                   : 6 каналов
Расположение каналов                     : Front: L C R, Side: L R, LFE
Частота                                  : 48,0 КГц
Частота кадров                           : 31,250 кадров/сек (1536 SPF)
Битовая глубина                          : 16 бит
Метод сжатия                             : С потерями
Размер потока                            : 370 Мбайт (8%)
Заголовок                                : Original | DD 5.1 @ 448 kbps
Язык                                     : Japanese
ServiceKind/Strin                        : Complete Main
Default                                  : Нет
Forced                                   : Нет

Текст #1
Идентификатор                            : 5
Формат                                   : UTF-8
Идентификатор кодека                     : S_TEXT/UTF8
Идентификатор кодека/Информация          : UTF-8 Plain Text
Продолжительность                        : 1 ч. 55 м.
Битрейт                                  : 57 бит/сек
ElementCount                             : 992
Размер потока                            : 48,8 Кбайт (0%)
Язык                                     : Russian
Default                                  : Нет
Forced                                   : Нет

Текст #2
Идентификатор                            : 6
Формат                                   : UTF-8
Идентификатор кодека                     : S_TEXT/UTF8
Идентификатор кодека/Информация          : UTF-8 Plain Text
Продолжительность                        : 1 ч. 55 м.
Битрейт                                  : 33 бит/сек
ElementCount                             : 992
Размер потока                            : 28,3 Кбайт (0%)
Язык                                     : English
Default                                  : Нет
Forced                                   : Нет

Меню
00:00:00.000                             : en:00:00:00.000
00:06:50.035                             : en:00:06:50.035
00:10:15.031                             : en:00:10:15.031
00:15:42.567                             : en:00:15:42.567
00:20:11.877                             : en:00:20:11.877
00:25:22.771                             : en:00:25:22.771
00:27:57.384                             : en:00:27:57.384
00:31:59.626                             : en:00:31:59.626
00:38:54.082                             : en:00:38:54.082
00:43:36.822                             : en:00:43:36.822
00:46:35.000                             : en:00:46:35.000
00:51:17.533                             : en:00:51:17.533
00:55:24.363                             : en:00:55:24.363
01:04:00.545                             : en:01:04:00.545
01:10:13.125                             : en:01:10:13.125
01:16:05.811                             : en:01:16:05.811
01:19:41.318                             : en:01:19:41.318
01:22:15.681                             : en:01:22:15.681
01:26:06.828                             : en:01:26:06.828
01:29:37.372                             : en:01:29:37.372
01:35:41.861                             : en:01:35:41.861
01:40:59.387                             : en:01:40:59.387
01:44:21.547                             : en:01:44:21.547
01:49:08.834                             : en:01:49:08.834



Скриншоты:
[+] Всего файлов в раздаче - 1:
Tales from Earthsea (2006) BDRip 1080p [HEVC].mkv4.67 GB

Отзывы
Зарегистрируйтесь чтобы добавить комментарий.
Обратная связь
Copyleft ©