↑↓torrent.by
Поиск
Логин: Регистрация
Пароль: Восстановить пароль

Француз (2019) WEB-DLRip от GeneralFilm | iTunes

Скачать francuz-2019-web-dlrip-ot-generalfilm-itunes.torrent
U Магнитная ссылка Размер: 1.46 GB Раздают: 119 Качают: 48 Добавлен: 2020-01-09 10:18:55
Француз (2019) WEB-DLRip от GeneralFilm | iTunes

Год выпуска: 2019
Жанр:  История, драма
Выпущено: Россия, «Мармот-фильм»
Режиссер: Андрей Смирнов
В ролях: Антон Риваль, Евгения Образцова, Александр Балуев, Евгений Ткачук, Михаил Ефремов, Роман Мадянов, Нина Дробышева, Наталья Тенякова, Лилия Багирова, Люси Арон

О фильме: В 1957 году французский студент Пьер Дюран приезжает в Москву на стажировку в МГУ. Здесь он знакомится с балериной Большого театра Кирой Галкиной и фотографом Валерой Успенским. Благодаря этим знакомствам, Пьер погружается в культурную жизнь Москвы, не только официальную, но и подпольную. За год в Москве Пьер проживает целую жизнь, совершенно не похожую на всё, что он знал. Но стажировка и знакомство с разными сторонами быта советских людей — не единственная цель Пьера. Он ищет своего отца, белого офицера Татищева, который был арестован в конце 30-х.

Качество: WEB-DLRip
Видео: XviD build 73, 720x384 (1.85:1), 24.000 fps, 1424 Kbps (0.215 bit/pixel)
Аудио: 48.0 kHz, AC3, 2/0 ch, 192 kbps
Продолжительность: 02:08:20
Перевод: Не требуется [Русский]
Cубтитры: Русские (форсированные)

Релиз:
[+] MediaInfo
General
Complete name               : D:RazdachiFrancuz.2019.WEB-DLRip.GeneralFilm.avi
Format                      : AVI
Format/Info                 : Audio Video Interleave
File size                   : 1.46 GiB
Duration                    : 2 h 8 min
Overall bit rate            : 1 625 kb/s
Writing application         : VirtualDubMod 1.5.10.3 | www.virtualdub-fr.org || (build 2550/release)
Writing library             : VirtualDubMod build 2550/release

Video
ID                          : 0
Format                      : MPEG-4 Visual
Format profile              : Advanced Simple@L5
Format settings             : BVOP1 / Custom Matrix
Format settings, BVOP       : 1
Format settings, QPel       : No
Format settings, GMC        : No warppoints
Format settings, Matrix     : Custom
Codec ID                    : XVID
Codec ID/Hint               : XviD
Duration                    : 2 h 8 min
Bit rate                    : 1 424 kb/s
Width                       : 720 pixels
Height                      : 384 pixels
Display aspect ratio        : 1.85:1
Frame rate                  : 24.000 FPS
Color space                 : YUV
Chroma subsampling          : 4:2:0
Bit depth                   : 8 bits
Scan type                   : Progressive
Compression mode            : Lossy
Bits/(Pixel*Frame)          : 0.215
Stream size                 : 1.28 GiB (88%)
Writing library             : XviD 73

Audio
ID                          : 1
Format                      : AC-3
Format/Info                 : Audio Coding 3
Commercial name             : Dolby Digital
Codec ID                    : 2000
Duration                    : 2 h 8 min
Bit rate mode               : Constant
Bit rate                    : 192 kb/s
Channel(s)                  : 2 channels
Channel layout              : L R
Sampling rate               : 48.0 kHz
Frame rate                  : 31.250 FPS (1536 SPF)
Compression mode            : Lossy
Stream size                 : 176 MiB (12%)
Alignment                   : Split across interleaves
Interleave, duration        : 42  ms (1.00 video frame)
Interleave, preload duratio : 500  ms
Service kind                : Complete Main



Скриншоты:
[+] Всего файлов в раздаче - 1:
Francuz.2019.WEB-DLRip.GeneralFilm.avi1.46 GB

Похожие раздачи по запросу - француз:
2020-01-12 U Француз (2019) WEB-DLRip от Scarabey | iTunes 1.45 GB ↑ 94 ↓ 18
2020-01-11 U Француз (2019) WEB-DLRip от Portablius | iTunes 796.85 MB ↑ 43 ↓ 8
2020-01-09 U Француз (2019) WEB-DLRip-AVC | iTunes 2.04 GB ↑ 137 ↓ 13
2020-01-09 U Француз (2019) WEB-DLRip-AVC | iTunes 2.18 GB ↑ 61 ↓ 22
2020-01-09 U Француз (2019) WEB-DL 1080p | iTunes 5.00 GB ↑ 150 ↓ 47
2020-01-09 U Француз (2019) WEB-DLRip | iTunes 1.45 GB ↑ 144 ↓ 53

Отзывы
Зарегистрируйтесь чтобы добавить комментарий.
Обратная связь
Copyleft ©