↑↓torrent.by
Поиск
Логин: Регистрация
Пароль: Восстановить пароль

Пес в сапогах (1981) WEBRip 720p

Скачать pes-v-sapogah-1981-webrip-720p.torrent
U Магнитная ссылка Размер: 619.44 MB Раздают: 36 Качают: 5 Добавлен: 2020-01-11 06:16:31
Пес в сапогах (1981) WEBRip 720p

Название: Пес в сапогах
Год выхода: 1981
Жанр:  мультфильм, короткометражный, мюзикл
Режиссер: Ефим Гамбург
Роли озвучивали: Николай Караченцов, Ирина Муравьева, Валентин Гафт, Юрий Волынцев, Александр Ширвиндт, Евгений Весник, Лев Дуров, Василий Ливанов, Всеволод Ларионов, Григорий Шпигель

О фильме:
Великолепная рисованная пародия на популярный мюзикл "Д'Артаньян и три мушкетера". Безродный пес из Гасконии, увидев в мушкетерских нарядах королевских собак, мечтает служить при дворе и о военной славе. Судьба представляет ему такой шанс. Пес-гасконец, влюбившись в болонку королевы, отправляется за ней во дворец. Болонка просит его спасти саму королеву, которая неосмотрительно отдала свое колье английскому герцогу, а теперь ее величеству надо явиться в нем на бал. Верный пес-гасконец со своими друзьями по кличке Толстяк, Красавчик и Благородный отправляются за колье в Англию. В дороге кошки Кардинала, возглавляемые Миледи, сманивают колбаской Толстяка, а сострадательного Красавчика бедными овечками — тех никто не пасет. Остается только Благородный, который отвлекает кошек от пса-гасконца. Наш герой переправляется через море, попадает в Англию и крадет колье. Назад домой ему помогают вернуться летучие мыши, ненавидящие всех котов и кошек. Храбрый пес успевает вернуться к балу как раз в нужное время, заслуживает любовь королевской болонки и победно вышагивает по Парижу вместе со своими слегка пострадавшими товарищами.

Страна: СССР
Студия: Союзмультфильм
Продолжительность: 00:20:38
Язык: Русский

Файл                                      
Формат: Matroska
Качество: WEBRip 720p
Видео: 950x720 at 25.00 fps, x264, ~4000 kbps, 0.234 bpp
Аудио: AC3, 2 ch, ~192 kbps - | Русский | -
Формат субтитров: softsub (SRT)

***Релиз от: -=DoMiNo=-


[+] M/I
General
Format                      : Matroska
Format version              : Version 4
File size                   : 619 MiB
Duration                    : 20 min 38 s
Overall bit rate            : 4 196 kb/s
Movie name                  : Пёс в сапогах.(1981).WEBRip-720p.[-=DoMiNo=-]
Encoded date                : UTC 2020-01-10 08:09:48
Writing application         : mkvmerge v42.0.0 ('Overtime') 64-bit
Writing library             : libebml v1.3.10 + libmatroska v1.5.2
Attachments                 : poster.jpg / poster 2.jpg

Video
ID                          : 1
Format                      : AVC
Format/Info                 : Advanced Video Codec
Format profile              : High@L4.1
Format settings             : CABAC / 12 Ref Frames
Format settings, CABAC      : Yes
Format settings, Reference  : 12 frames
Codec ID                    : V_MPEG4/ISO/AVC
Duration                    : 20 min 38 s
Bit rate                    : 4 000 kb/s
Width                       : 950 pixels
Height                      : 720 pixels
Display aspect ratio        : 4:3
Frame rate mode             : Constant
Frame rate                  : 25.000 FPS
Color space                 : YUV
Chroma subsampling          : 4:2:0
Bit depth                   : 8 bits
Scan type                   : Progressive
Bits/(Pixel*Frame)          : 0.234
Stream size                 : 591 MiB (95%)
Title                       : RIP_BY_-=DoMiNo=-
Writing library             : x264 core 157 r2958 57baac4
Encoding settings           : cabac=1 / ref=12 / deblock=1:-3:-3 / analyse=0x3:0x133 / me=umh / subme=11 / psy=1 / psy_rd=1.00:0.00 / mixed_ref=1 / me_range=32 / chroma_me=1 / trellis=2 / 8x8dct=1 / cqm=0 / deadzone=21,11 / fast_pskip=0 / chroma_qp_offset=-2 / threads=6 / lookahead_threads=1 / sliced_threads=0 / nr=0 / decimate=0 / interlaced=0 / bluray_compat=0 / constrained_intra=0 / bframes=16 / b_pyramid=2 / b_adapt=2 / b_bias=0 / direct=3 / weightb=1 / open_gop=0 / weightp=2 / keyint=250 / keyint_min=25 / scenecut=40 / intra_refresh=0 / rc_lookahead=100 / rc=2pass / mbtree=1 / bitrate=4000 / ratetol=1.0 / qcomp=0.80 / qpmin=0 / qpmax=69 / qpstep=4 / cplxblur=20.0 / qblur=0.5 / vbv_maxrate=50000 / vbv_bufsize=62500 / nal_hrd=none / filler=0 / ip_ratio=1.40 / aq=2:0.80
Language                    : Russian
Default                     : Yes
Forced                      : No

Audio
ID                          : 2
Format                      : AC-3
Format/Info                 : Audio Coding 3
Commercial name             : Dolby Digital
Codec ID                    : A_AC3
Duration                    : 20 min 38 s
Bit rate mode               : Constant
Bit rate                    : 192 kb/s
Channel(s)                  : 2 channels
Channel layout              : L R
Sampling rate               : 48.0 kHz
Frame rate                  : 31.250 FPS (1536 SPF)
Compression mode            : Lossy
Stream size                 : 28.3 MiB (5%)
Language                    : Russian
Service kind                : Complete Main
Default                     : Yes
Forced                      : No

Menu
00:00:00.000                : :Глава 1
00:02:46.080                : :Глава 2
00:04:58.080                : :Глава 3
00:07:00.080                : :Глава 4
00:09:20.080                : :Глава 5
00:11:16.080                : :Глава 6
00:13:12.080                : :Глава 7
00:15:02.080                : :Глава 8
00:15:10.080                : :Глава 9
00:16:56.080                : :Глава 10
00:18:46.080                : :Глава 11



Скриншоты:
[+] Всего файлов в раздаче - 1:
Пёс в сапогах.(1981).WEBRip-720p.[-=DoMiNo=-].mkv619.44 MB

Похожие раздачи по запросу - сапогах:
2017-08-29 U Кот в сапогах (1996) WEB-DL 720p 726.47 MB ↑ 438 ↓ 7

Отзывы
Зарегистрируйтесь чтобы добавить комментарий.
Обратная связь
Copyleft ©