↑↓Torrent.by
Поиск
Логин: Регистрация
Пароль: Восстановить пароль

Давай разведемся! (2019) WEBRip от GeneralFilm

Скачать davay-razvedemsya-2019-webrip-ot-generalfilm.torrent
U Магнитная ссылка Размер: 1.09 GB Раздают: 96 Качают: 93 Добавлен: 2020-01-11 12:11:22
Давай разведемся! (2019) WEBRip от GeneralFilm

Год выпуска: 2019
Жанр:  Комедия
Выпущено: Россия
Режиссер: Анна Пармас
В ролях: Анна Михалкова, Антон Филипенко, Светлана Камынина, Максим Лагашкин, Федор Лавров, Анна Рыцарева, Надежда Маркина, Сергей Рост, Дарья Румянцева, Майя Скородумова и др

О фильме: Успешный врач Маша поглощена работой и не сразу замечает, что от нее уходит муж. Жизнь переворачивается вверх дном: на работе аврал, дети требуют постоянного внимания, а привыкшая побеждать Маша не готова уступить любимого мужа красотке фитнес-тренеру. Маша призывает на помощь полный боевой арсенал, включая потусторонние силы. Но новая жизнь открывает новые возможности…

Качество: WEBRip
Видео: XviD build 73, 720x304 (2.37:1), 25.000 fps, 1487 Kbps (0.272 bit/pixel)
Аудио: 48.0 kHz, AC3, 2/0 ch, 192 kbps
Продолжительность: 01:32:19
Перевод: Не требуется [Русский]
Cубтитры: нет

Релиз:
[+] MediaInfo
General
Complete name               : D:RazdachiDavaj.Razvedemsja.2019.WEBRip.GeneralFilm.avi
Format                      : AVI
Format/Info                 : Audio Video Interleave
File size                   : 1.09 GiB
Duration                    : 1 h 32 min
Overall bit rate            : 1 689 kb/s
Writing application         : VirtualDubMod 1.5.10.3 | www.virtualdub-fr.org || (build 2550/release)
Writing library             : VirtualDubMod build 2550/release

Video
ID                          : 0
Format                      : MPEG-4 Visual
Format profile              : Advanced Simple@L5
Format settings             : BVOP1 / Custom Matrix
Format settings, BVOP       : 1
Format settings, QPel       : No
Format settings, GMC        : No warppoints
Format settings, Matrix     : Custom
Codec ID                    : XVID
Codec ID/Hint               : XviD
Duration                    : 1 h 32 min
Bit rate                    : 1 487 kb/s
Width                       : 720 pixels
Height                      : 304 pixels
Display aspect ratio        : 2.35:1
Frame rate                  : 25.000 FPS
Color space                 : YUV
Chroma subsampling          : 4:2:0
Bit depth                   : 8 bits
Scan type                   : Progressive
Compression mode            : Lossy
Bits/(Pixel*Frame)          : 0.272
Stream size                 : 982 MiB (88%)
Writing library             : XviD 73

Audio
ID                          : 1
Format                      : AC-3
Format/Info                 : Audio Coding 3
Commercial name             : Dolby Digital
Codec ID                    : 2000
Duration                    : 1 h 32 min
Bit rate mode               : Constant
Bit rate                    : 192 kb/s
Channel(s)                  : 2 channels
Channel layout              : L R
Sampling rate               : 48.0 kHz
Frame rate                  : 31.250 FPS (1536 SPF)
Compression mode            : Lossy
Stream size                 : 127 MiB (11%)
Alignment                   : Split across interleaves
Interleave, duration        : 40  ms (1.00 video frame)
Interleave, preload duratio : 500  ms
Service kind                : Complete Main



Скриншоты:
[+] Всего файлов в раздаче - 1:
Davaj.Razvedemsja.2019.WEBRip.GeneralFilm.avi1.09 GB

Похожие раздачи по запросу - давай:
2020-01-12 U Давай разведемся! (2019) WEBRip-AVC от Files-х 1.45 GB ↑ 44 ↓ 10
2020-01-11 U Давай разведемся! (2019) WEBRip 1080p 3.34 GB ↑ 119 ↓ 56
2020-01-09 U Давай разведемся! (2019) WEB-DLRip 742.95 MB ↑ 176 ↓ 54
2020-01-07 U Давай разведемся! (2019) WEBRip от Dalemake 1.46 GB ↑ 2440 ↓ 653
2019-08-30 U Давай, танцуй! / Давай танцюй! / Let's dance! (2019) SATRip | UKR 1.40 GB ↑ 267 ↓ 22

Отзывы
Зарегистрируйтесь чтобы добавить комментарий.
Обратная связь
Copyleft ©