↑↓Torrent.by
Поиск
Логин: Регистрация
Пароль: Восстановить пароль

Птица (2016) WEB-DL 1080p

Скачать ptica-2016-web-dl-1080p.torrent
U Магнитная ссылка Размер: 3.12 GB Раздают: 30 Качают: 8 Добавлен: 2020-01-12 06:21:36
Птица (2016) WEB-DL 1080p

Название: Птица
Год выпуска: 2016
Жанр:  Мелодрама, музыка
Режиссер: Ксения Баскакова
В ролях: Иван Охлобыстин, Евдокия Малевская, Анастасия Мельникова, Гарик Сукачёв, Кирилл Рубцов, Инна Горбикова, Кирилл Захаров, Денис Старков, Владимир Лекус, Олеся Соколова, Игорь Царев, Ольга Яковлева, Марианна Лучинина, Ксения Карелина, Екатерина Фёдорова

О фильме: «Олег Птицын умер», «Олег Птицын скрывается в тюрьме» — пестрят заголовки журналов и газет. Но нет, скандально известный рок-музыкант проходит лечение в клинике, там же к нему навязывается в друзья Катя, девочка-подросток, которая третирует всю больницу, с ней не может совладать даже собственная мать. Между ними начинается дружба.

Страна: Россия
Студия: Ленфильм
Продолжительность: 01:27:05
Перевод: Не требуется

Файл
Качество: WEB-DL 1080p
Контейнер: MKV
Видео: MPEG-4 AVC, 1920x1080, 25.000 fps, 4933 kbps
Аудио: Русский: AC3, 2 ch, 48 kHz, 192 kbps
Субтитры: Нет


[+] MediaInfo
Общее
Уникальный идентификатор                 : 184260254550703901481992272816920611682 (0x8A9F3BF337CC0EF391643F4FBFD84B62)
Полное имя                               : Ptitsa.2016.WEB-DL.(1080p).Getty.mkv
Формат                                   : Matroska
Версия формата                           : Version 4
Размер файла                             : 3,12 Гбайт
Продолжительность                        : 1 ч. 27 м.
Общий поток                              : 5127 Кбит/сек
Название фильма                          : Ptitsa.2016.WEB-DL.(1080p).Getty
Дата кодирования                         : UTC 2018-07-18 12:49:10
Программа кодирования                    : mkvmerge v7.8.0 ('River Man') 32bit built on Mar 27 2015 16:18:02
Библиотека кодирования                   : libebml v1.3.1 + libmatroska v1.4.2

Видео
Идентификатор                            : 1
Формат                                   : AVC
Формат/Информация                        : Advanced Video Codec
Профиль формата                          : Baseline@L3
Настройки формата                        : 1 Ref Frames
Параметр CABAC формата                   : Нет
Параметр RefFrames формата               : 1 кадр
Идентификатор кодека                     : V_MPEG4/ISO/AVC
Продолжительность                        : 1 ч. 27 м.
Битрейт                                  : 4933 Кбит/сек
Ширина                                   : 1920 пикселей
Высота                                   : 1080 пикселей
Соотношение сторон                       : 16:9
Режим частоты кадров                     : Постоянный
Частота кадров                           : 25,000 кадров/сек
Цветовое пространство                    : YUV
Субдискретизация насыщенности            : 4:2:0
Битовая глубина                          : 8 бит
Тип развёртки                            : Прогрессивная
Бит/(Пиксели*Кадры)                      : 0.095
Размер потока                            : 3,00 Гбайт (96%)
Default                                  : Да
Forced                                   : Нет

Аудио
Идентификатор                            : 2
Формат                                   : AC-3
Формат/Информация                        : Audio Coding 3
Коммерческое название                    : Dolby Digital
Идентификатор кодека                     : A_AC3
Продолжительность                        : 1 ч. 27 м.
Вид битрейта                             : Постоянный
Битрейт                                  : 192 Кбит/сек
Каналы                                   : 2 канала
ChannelLayout                            : L R
Частота                                  : 48,0 КГц
Частота кадров                           : 31,250 кадров/сек (1536 SPF)
Метод сжатия                             : С потерями
Размер потока                            : 120 Мбайт (4%)
Default                                  : Да
Forced                                   : Нет



Скриншоты:
[+] Всего файлов в раздаче - 1:
Ptitsa.2016.WEB-DL.(1080p).Getty.mkv3.12 GB

Отзывы
Зарегистрируйтесь чтобы добавить комментарий.
Обратная связь
Copyleft ©