↑↓Torrent.by
Поиск
Логин: Регистрация
Пароль: Восстановить пароль

Семейка Аддамс / The Addams Family (2019) BDRip 1080p | D

Скачать semeyka-addams-the-family-2019-bdrip-1080p-d.torrent
U Магнитная ссылка Размер: 7.61 GB Раздают: 352 Качают: 244 Добавлен: 2020-01-12 16:06:16
Семейка Аддамс / The Addams Family (2019) BDRip 1080p | D

«Думаете, ваша семейка странная?»

Название: Семейка Аддамс
Оригинальное название: The Addams Family
Год выхода: 2019
Жанр: Мультфильм, ужасы, фэнтези, комедия, семейный
Режиссер: Грег Тирнан, Конрад Вернон
Роли озвучивают: Оскар Айзек, Шарлиз Терон, Хлоя Грейс Морец, Финн Вулфард, Ник Кролл, Снуп Догг, Бетт Мидлер, Эллисон Джэнни, Мартин Шорт, Кэтрин О`Хара

О фильме:
Папа любит долгие прогулки в ненастную погоду. Мама считает, что черный цвет самый яркий. У детей кладбище — любимая площадка для игр. Бабушка выпивает пару капель яда перед сном. Вы все еще думаете, что ваши родственники странные? Знакомьтесь — семейка Аддамс.

Страна: Канада, США
Студия: BermanBraun, Bron Creative, Bron Studios, Cinesite Animation, Creative Wealth Media Finance, Metro-Goldwyn-Mayer (MGM), Nitrogen Studios Canada
Продолжительность: 01:27:01
Перевод: Дублированный | Онлайн кинотеатр, WETY

Файл
Качество: BDRip 1080p
Формат: MKV
Кодек: MPEG-4 AVC
Видео: 1920x1036 (1.85:1), 23,976 fps, MPEG-4 AVC ~ 11,3 Мbps avg, 0.237 bit/pixel
Аудио: AC3, 48 kHz, 2 ch, ~192.00 kbps avg | русский | Онлайн кинотеатр
Аудио: AC3, 48 kHz, 6 ch, ~384.00 kbps avg | русский | WETY

Аудио: AC3, 48 kHz, 6 ch, ~640.00 kbps avg | английский | Оригинал

Субтитры: Английские (Full, SDH)
Семпл


[+] Инфо-файл
Общее
Уникальный идентификатор                 : 150308401933964458163239170657972553586 (0x7114586030F368FDF1EF60F828128772)
Полное имя                               : The.Addams.Family.2019.1080p.BluRay.x264.mkv
Формат                                   : Matroska
Версия формата                           : Version 4
Размер файла                             : 7,61 Гбайт
Продолжительность                        : 1 ч. 27 м.
Общий поток                              : 12,5 Мбит/сек
Название фильма                          : Семейка Аддамс / The Addams Family (2019)
Дата кодирования                         : UTC 2020-01-12 07:19:20
Программа кодирования                    : mkvmerge v41.0.0 ('Smarra') 64-bit
Библиотека кодирования                   : libebml v1.3.9 + libmatroska v1.5.2
Обложка                                  : Yes
Attachments                              : cover.jpg

Видео
Идентификатор                            : 1
Формат                                   : AVC
Формат/Информация                        : Advanced Video Codec
Профиль формата                          : High@L4.1
Настройки формата                        : CABAC / 4 Ref Frames
Параметр CABAC формата                   : Да
Параметр RefFrames формата               : 4 кадра
Идентификатор кодека                     : V_MPEG4/ISO/AVC
Продолжительность                        : 1 ч. 27 м.
Битрейт                                  : 11,3 Мбит/сек
Ширина                                   : 1920 пикселей
Высота                                   : 1036 пикселей
Соотношение сторон                       : 1,85:1
Режим частоты кадров                     : Постоянный
Частота кадров                           : 23,976 (24000/1001) кадра/сек
Цветовое пространство                    : YUV
Субдискретизация насыщенности            : 4:2:0
Битовая глубина                          : 8 бит
Тип развёртки                            : Прогрессивная
Бит/(Пиксели*Кадры)                      : 0.237
Размер потока                            : 6,87 Гбайт (90%)
Заголовок                                : #CtrlHD
Библиотека кодирования                   : x264 core 159 r2991+50 ce3db24 t_mod_New [(8 & 10)-bit@all X86_64]
Настройки программы                      : cabac=1 / ref=4 / deblock=1:-3:-3 / analyse=0x3:0x133 / me=umh / subme=10 / psy=1 / fade_compensate=0.00 / psy_rd=0.80:0.00 / mixed_ref=1 / me_range=32 / chroma_me=1 / trellis=2 / 8x8dct=1 / cqm=0 / deadzone=21,11 / fast_pskip=0 / chroma_qp_offset=-2 / threads=18 / lookahead_threads=4 / sliced_threads=0 / nr=0 / decimate=1 / interlaced=0 / bluray_compat=0 / constrained_intra=0 / fgo=0 / bframes=16 / b_pyramid=2 / b_adapt=2 / b_bias=0 / direct=3 / weightb=1 / open_gop=0 / weightp=2 / keyint=250 / keyint_min=23 / scenecut=40 / intra_refresh=0 / rc=crf / mbtree=0 / crf=16.5000 / qcomp=0.60 / qpmin=0:0:0 / qpmax=69:69:69 / qpstep=4 / ip_ratio=1.20 / pb_ratio=1.10 / aq=3:1.00 / aq-sensitivity=10.00 / aq-factor=1.00:1.00:1.00 / aq2=0 / aq3=0
Язык                                     : English
Default                                  : Да
Forced                                   : Нет

Аудио #1
Идентификатор                            : 2
Формат                                   : AC-3
Формат/Информация                        : Audio Coding 3
Коммерческое название                    : Dolby Digital
Идентификатор кодека                     : A_AC3
Продолжительность                        : 1 ч. 27 м.
Вид битрейта                             : Постоянный
Битрейт                                  : 192 Кбит/сек
Каналы                                   : 2 канала
ChannelLayout                            : L R
Частота                                  : 48,0 КГц
Частота кадров                           : 31,250 кадров/сек (1536 SPF)
Метод сжатия                             : С потерями
Размер потока                            : 120 Мбайт (2%)
Заголовок                                : DUB |  Онлайн кинотеатр
Язык                                     : Russian
Default                                  : Да
Forced                                   : Нет

Аудио #2
Идентификатор                            : 3
Формат                                   : AC-3
Формат/Информация                        : Audio Coding 3
Коммерческое название                    : Dolby Digital
Идентификатор кодека                     : A_AC3
Продолжительность                        : 1 ч. 27 м.
Вид битрейта                             : Постоянный
Битрейт                                  : 384 Кбит/сек
Каналы                                   : 6 каналов
ChannelLayout                            : L R C LFE Ls Rs
Частота                                  : 48,0 КГц
Частота кадров                           : 31,250 кадров/сек (1536 SPF)
Метод сжатия                             : С потерями
Размер потока                            : 240 Мбайт (3%)
Заголовок                                : DUB |  WetY
Язык                                     : Russian
Default                                  : Нет
Forced                                   : Нет

Аудио #3
Идентификатор                            : 4
Формат                                   : AC-3
Формат/Информация                        : Audio Coding 3
Коммерческое название                    : Dolby Digital
Идентификатор кодека                     : A_AC3
Продолжительность                        : 1 ч. 27 м.
Вид битрейта                             : Постоянный
Битрейт                                  : 640 Кбит/сек
Каналы                                   : 6 каналов
ChannelLayout                            : L R C LFE Ls Rs
Частота                                  : 48,0 КГц
Частота кадров                           : 31,250 кадров/сек (1536 SPF)
Метод сжатия                             : С потерями
Размер потока                            : 398 Мбайт (5%)
Заголовок                                : Original
Язык                                     : English
Default                                  : Нет
Forced                                   : Нет

Текст #1
Идентификатор                            : 5
Формат                                   : UTF-8
Идентификатор кодека                     : S_TEXT/UTF8
Идентификатор кодека/Информация          : UTF-8 Plain Text
Продолжительность                        : 1 ч. 17 м.
Битрейт                                  : 63 бит/сек
ElementCount                             : 1089
Размер потока                            : 36,3 Кбайт (0%)
Заголовок                                : Full
Язык                                     : English
Default                                  : Нет
Forced                                   : Нет

Текст #2
Идентификатор                            : 6
Формат                                   : UTF-8
Идентификатор кодека                     : S_TEXT/UTF8
Идентификатор кодека/Информация          : UTF-8 Plain Text
Продолжительность                        : 1 ч. 25 м.
Битрейт                                  : 75 бит/сек
ElementCount                             : 1406
Размер потока                            : 47,4 Кбайт (0%)
Заголовок                                : SDH
Язык                                     : English
Default                                  : Нет
Forced                                   : Нет

Меню
00:00:00.000                             : :Chapter 01
00:05:08.558                             : :Chapter 02
00:10:35.468                             : :Chapter 03
00:15:46.946                             : :Chapter 04
00:19:35.257                             : :Chapter 05
00:25:14.805                             : :Chapter 06
00:29:25.764                             : :Chapter 07
00:34:20.558                             : :Chapter 08
00:39:46.968                             : :Chapter 09
00:45:01.741                             : :Chapter 10
00:49:07.611                             : :Chapter 11
00:53:40.926                             : :Chapter 12
00:56:36.560                             : :Chapter 13
01:00:01.014                             : :Chapter 14
01:03:45.947                             : :Chapter 15
01:06:02.458                             : :Chapter 16
01:10:54.584                             : :Chapter 17
01:18:09.476                             : :Chapter 18
01:20:21.316                             : :Chapter 19
01:21:11.325                             : :Chapter 20



Скриншоты:
[+] Всего файлов в раздаче - 1:
The.Addams.Family.2019.1080p.BluRay.x264.mkv7.61 GB

Показать еще раздачи по запросу семейка:
2020-01-14 U Семейка Аддамс / The Addams Family (2019) BDRip | А 1.46 GB ↑ 36 ↓ 14
2020-01-14 U Семейка Аддамс / The Addams Family (2019) BDRip | D 743.33 MB ↑ 33 ↓ 6
2020-01-14 U Семейка Аддамс / The Addams Family (2019) BDRip 720p | D 4.58 GB ↑ 27 ↓ 9
2020-01-12 U Семейка Аддамс / The Addams Family (2019) BDRip-AVC от ExKinoRay | D 2.02 GB ↑ 99 ↓ 36
2020-01-11 U Семейка Аддамс / The Addams Family (2019) BDRip от MegaPeer | D 1.46 GB ↑ 5947 ↓ 244
2020-01-01 U Семейка Аддамс / The Addams Family (2019) WEB-DLRip-AVC от OlLanDGroup | D 745.81 MB ↑ 39 ↓ 13
2019-12-29 U Семейка Аддамс / The Addams Family (2019) WEB-DLRip от Portablius | D 745.34 MB ↑ 109 ↓ 20

Отзывы
Зарегистрируйтесь чтобы добавить комментарий.
Обратная связь
Copyleft ©