↑↓Torrent.by
Поиск
Логин: Регистрация
Пароль: Восстановить пароль

Семейка Аддамс / The Addams Family (2019) BDRip-AVC от ExKinoRay | D

Скачать semeyka-addams-the-family-2019-bdrip-avc-ot-exkinoray-d.torrent
U Магнитная ссылка Размер: 2.02 GB Раздают: 99 Качают: 36 Добавлен: 2020-01-12 16:06:37
Семейка Аддамс / The Addams Family (2019) BDRip-AVC от ExKinoRay | D

Название: Семейка Аддамс
Оригинальное название: The Addams Family
Год выпуска: 2019
Жанр: Мультфильм, ужасы, фэнтези, комедия, семейный
Режиссер: Грег Тирнан, Конрад Вернон
В ролях: Оскар Айзек, Шарлиз Терон, Хлоя Грейс Морец, Финн Вулфард, Ник Кролл, Снуп Догг, Бетт Мидлер, Эллисон Джэнни, Мартин Шорт, Кэтрин О`Хара

О фильме:  Папа любит долгие прогулки в ненастную погоду. Мама считает, что черный цвет самый яркий. У детей кладбище - любимая площадка для игр. Бабушка выпивает пару капель яда перед сном. Вы все еще думаете, что ваши родственники странные? Знакомьтесь - семейка Аддамс.

Страна: Канада, США
Студия: Metro-Goldwyn-Mayer (MGM), Cinesite Animation
Продолжительность: 01:27:26
Перевод: Дублированный | Онлайн кинотеатр, WETY

Формат: MKV
Качество: BDRip-AVC
Видео: MPEG-4 AVC, 1024x552 (1.85:1), 23.976 fps, 2287 Kbps, 0.169 bit/pixel
Аудио #01: 48 kHz, AC3, 2.0, 192 Kbps | Онлайн кинотеатр | RUS |
Аудио #02: 48 kHz, AC3, 5.1, 384 Kbps | WETY | RUS |
Аудио #03: 48 kHz, AC3, 5.1, 448 Kbps | Оригинал |  ENG |
Субтитры: Английские

Релиз:

Автор релиза:


[+] ОтчетМедиаИнфо

General
Unique ID                                : 241488538311601736210232607719051825659 (0xB5AD002EED86040584B107039F2111FB)
Complete name                            : F:The Addams Family.2019.BDRip.AVC.ExKinoRay.mkv
Format                                   : Matroska
Format version                           : Version 2
File size                                : 2.02 GiB
Duration                                 : 1 h 27 min
Overall bit rate                         : 3 301 kb/s
Movie name                               : The Addams Family (2019) from ExKinoRay
Encoded date                             : UTC 2020-01-12 05:18:24
Writing application                      : mkvmerge v5.6.0 ('Kenya Kane') built on May 27 2012 16:44:04
Writing library                          : libebml v1.2.3 + libmatroska v1.3.0

Video
ID                                       : 1
Format                                   : AVC
Format/Info                              : Advanced Video Codec
Format profile                           : High@L4.1
Format settings, CABAC                   : Yes
Format settings, ReFrames                : 12 frames
Codec ID                                 : V_MPEG4/ISO/AVC
Duration                                 : 1 h 27 min
Bit rate                                 : 2 287 kb/s
Width                                    : 1 024 pixels
Height                                   : 552 pixels
Display aspect ratio                     : 1.85:1
Frame rate mode                          : Constant
Frame rate                               : 23.976 (23976/1000) FPS
Color space                              : YUV
Chroma subsampling                       : 4:2:0
Bit depth                                : 8 bits
Scan type                                : Progressive
Bits/(Pixel*Frame)                       : 0.169
Stream size                              : 1.35 GiB (67%)
Title                                    : Enigma
Writing library                          : x264 core 152 r2851 ba24899
Encoding settings                        : cabac=1 / ref=12 / deblock=1:-2:-2 / analyse=0x3:0x113 / me=umh / subme=10 / psy=1 / psy_rd=1.00:0.05 / mixed_ref=1 / me_range=32 / chroma_me=1 / trellis=2 / 8x8dct=1 / cqm=0 / deadzone=21,11 / fast_pskip=0 / chroma_qp_offset=-3 / threads=12 / lookahead_threads=2 / sliced_threads=0 / nr=0 / decimate=0 / interlaced=0 / bluray_compat=0 / constrained_intra=0 / bframes=9 / b_pyramid=2 / b_adapt=2 / b_bias=0 / direct=3 / weightb=1 / open_gop=0 / weightp=2 / keyint=240 / keyint_min=23 / scenecut=40 / intra_refresh=0 / rc=2pass / mbtree=0 / bitrate=2287 / ratetol=1.0 / qcomp=0.65 / qpmin=0 / qpmax=51 / qpstep=4 / cplxblur=20.0 / qblur=0.5 / ip_ratio=1.40 / pb_ratio=1.30 / aq=2:0.90
Language                                 : English
Default                                  : Yes
Forced                                   : No
Color range                              : Limited
Color primaries                          : BT.709
Transfer characteristics                 : BT.709
Matrix coefficients                      : BT.709

Audio #1
ID                                       : 2
Format                                   : AC-3
Format/Info                              : Audio Coding 3
Mode extension                           : CM (complete main)
Format settings, Endianness              : Big
Codec ID                                 : A_AC3
Duration                                 : 1 h 27 min
Bit rate mode                            : Constant
Bit rate                                 : 192 kb/s
Channel(s)                               : 2 channels
Channel positions                        : Front: L R
Sampling rate                            : 48.0 kHz
Frame rate                               : 31.250 FPS (1536 spf)
Compression mode                         : Lossy
Stream size                              : 120 MiB (6%)
Title                                    : Dub
Language                                 : Russian
Default                                  : Yes
Forced                                   : No

Audio #2
ID                                       : 3
Format                                   : AC-3
Format/Info                              : Audio Coding 3
Mode extension                           : CM (complete main)
Format settings, Endianness              : Big
Codec ID                                 : A_AC3
Duration                                 : 1 h 27 min
Bit rate mode                            : Constant
Bit rate                                 : 384 kb/s
Channel(s)                               : 6 channels
Channel positions                        : Front: L C R, Side: L R, LFE
Sampling rate                            : 48.0 kHz
Frame rate                               : 31.250 FPS (1536 spf)
Compression mode                         : Lossy
Stream size                              : 240 MiB (12%)
Title                                    : WETY
Language                                 : Russian
Default                                  : No
Forced                                   : No

Audio #3
ID                                       : 4
Format                                   : AC-3
Format/Info                              : Audio Coding 3
Mode extension                           : CM (complete main)
Format settings, Endianness              : Big
Codec ID                                 : A_AC3
Duration                                 : 1 h 27 min
Bit rate mode                            : Constant
Bit rate                                 : 448 kb/s
Channel(s)                               : 6 channels
Channel positions                        : Front: L C R, Side: L R, LFE
Sampling rate                            : 48.0 kHz
Frame rate                               : 31.250 FPS (1536 spf)
Compression mode                         : Lossy
Stream size                              : 280 MiB (14%)
Language                                 : English
Default                                  : No
Forced                                   : No

Text
ID                                       : 5
Format                                   : UTF-8
Codec ID                                 : S_TEXT/UTF8
Codec ID/Info                            : UTF-8 Plain Text
Language                                 : English
Default                                  : No
Forced                                   : No

Menu
00:00:00.000                             : :Chapter 01
00:05:08.558                             : :Chapter 02
00:10:35.468                             : :Chapter 03
00:15:46.946                             : :Chapter 04
00:19:35.257                             : :Chapter 05
00:25:14.805                             : :Chapter 06
00:29:25.764                             : :Chapter 07
00:34:20.558                             : :Chapter 08
00:39:46.968                             : :Chapter 09
00:45:01.741                             : :Chapter 10
00:49:07.611                             : :Chapter 11
00:53:40.926                             : :Chapter 12
00:56:36.560                             : :Chapter 13
01:00:01.014                             : :Chapter 14
01:03:45.947                             : :Chapter 15
01:06:02.458                             : :Chapter 16
01:10:54.584                             : :Chapter 17
01:18:09.476                             : :Chapter 18
01:20:21.316                             : :Chapter 19
01:21:11.325                             : :Chapter 20




Скриншоты:
[+] Всего файлов в раздаче - 1:
The Addams Family.2019.BDRip.AVC.ExKinoRay.mkv2.02 GB

Показать еще раздачи по запросу семейка:
2020-01-14 U Семейка Аддамс / The Addams Family (2019) BDRip | А 1.46 GB ↑ 35 ↓ 14
2020-01-14 U Семейка Аддамс / The Addams Family (2019) BDRip | D 743.33 MB ↑ 33 ↓ 6
2020-01-14 U Семейка Аддамс / The Addams Family (2019) BDRip 720p | D 4.58 GB ↑ 27 ↓ 9
2020-01-12 U Семейка Аддамс / The Addams Family (2019) BDRip 1080p | D 7.61 GB ↑ 352 ↓ 244
2020-01-11 U Семейка Аддамс / The Addams Family (2019) BDRip от MegaPeer | D 1.46 GB ↑ 5947 ↓ 244
2020-01-01 U Семейка Аддамс / The Addams Family (2019) WEB-DLRip-AVC от OlLanDGroup | D 745.81 MB ↑ 39 ↓ 13
2019-12-29 U Семейка Аддамс / The Addams Family (2019) WEB-DLRip от Portablius | D 745.34 MB ↑ 109 ↓ 20

Отзывы
Зарегистрируйтесь чтобы добавить комментарий.
Обратная связь
Copyleft ©