↑↓Torrent.by
Поиск
Логин: Регистрация
Пароль: Восстановить пароль

Невиновен (2019) WEB-DLRip от GeneralFilm

Скачать nevinoven-2019-web-dlrip-ot-generalfilm.torrent
U Магнитная ссылка Размер: 744.94 MB Раздают: 102 Качают: 37 Добавлен: 2020-01-12 16:06:46
Невиновен (2019) WEB-DLRip от GeneralFilm

Год выпуска: 2019
Жанр:  Драма, боевик
Выпущено: Россия, «Кавказфильм»
Режиссер: Андзор Емкуж
В ролях: Ахмед Хамурзов, Тимур Кетенчиев, Жанетта Тхашугоева, Татьяна Дрожжина, Кантемир Шипшев, Артур Проскурин, Каншоуби Хашев, Замир Дышеков, Аскер Налоев, Валентин Камергоев

О фильме: Айтеч, бывший сотрудник спецслужб, вернувшись на родину на Кавказ, работает егерем в горах. Он уговаривает брата отправить племянника Азамата на учебу в Москву, где он сам учился в свое время, для получения достойного образования, но юношу убивают. Съедаемый чувством собственной вины за случившееся и движимый желанием всего рода - найти и наказать виновного, он отправляется в столицу... За что убили юношу? Как его убийца превратился из славного мальчика в жестокого зверя? Как должен поступить дядя: в соответствии с древними традициями кровной мести, по закону или по совести?..

Качество: WEB-DLRip
Видео: XviD build 73, 720x304 (2.35:1), 24.000 fps, 1199 Kbps (0.228 bit/pixel)
Аудио: 48.0 kHz, MP3, 2/0 ch, 128 kbps
Продолжительность: 01:17:56
Перевод: Не требуется [Русский]
Cубтитры: нет

Релиз:
[+] MediaInfo
General
Complete name               : D:RazdachiNevinoven.2019.WEB-DLRip.GeneralFilm.avi
Format                      : AVI
Format/Info                 : Audio Video Interleave
File size                   : 745 MiB
Duration                    : 1 h 17 min
Overall bit rate            : 1 336 kb/s
Writing application         : VirtualDubMod 1.5.10.3 | www.virtualdub-fr.org || (build 2550/release)
Writing library             : VirtualDubMod build 2550/release

Video
ID                          : 0
Format                      : MPEG-4 Visual
Format profile              : Advanced Simple@L5
Format settings             : BVOP1 / Custom Matrix
Format settings, BVOP       : 1
Format settings, QPel       : No
Format settings, GMC        : No warppoints
Format settings, Matrix     : Custom
Codec ID                    : XVID
Codec ID/Hint               : XviD
Duration                    : 1 h 17 min
Bit rate                    : 1 199 kb/s
Width                       : 720 pixels
Height                      : 304 pixels
Display aspect ratio        : 2.35:1
Frame rate                  : 24.000 FPS
Color space                 : YUV
Chroma subsampling          : 4:2:0
Bit depth                   : 8 bits
Scan type                   : Progressive
Compression mode            : Lossy
Bits/(Pixel*Frame)          : 0.228
Stream size                 : 668 MiB (90%)
Writing library             : XviD 73

Audio
ID                          : 1
Format                      : MPEG Audio
Format version              : Version 1
Format profile              : Layer 3
Codec ID                    : 55
Codec ID/Hint               : MP3
Duration                    : 1 h 17 min
Bit rate mode               : Constant
Bit rate                    : 128 kb/s
Channel(s)                  : 2 channels
Sampling rate               : 48.0 kHz
Frame rate                  : 41.667 FPS (1152 SPF)
Compression mode            : Lossy
Stream size                 : 71.3 MiB (10%)
Alignment                   : Aligned on interleaves
Interleave, duration        : 42  ms (1.00 video frame)
Interleave, preload duratio : 504  ms
Writing library             : LAME3.99r
Encoding settings           : -m s -V 4 -q 2 -lowpass 17 -b 128



Скриншоты:
[+] Всего файлов в раздаче - 1:
Nevinoven.2019.WEB-DLRip.GeneralFilm.avi744.94 MB

Похожие раздачи по запросу - невиновен:
2020-01-12 U Невиновен (2019) WEB-DLRip-AVC от ExKinoRay 745.11 MB ↑ 78 ↓ 30
2020-01-12 U Невиновен (2019) WEB-DL 720p от ExKinoRay 1.61 GB ↑ 286 ↓ 64
2020-01-12 U Невиновен (2019) WEB-DL 1080p от ExKinoRay 2.99 GB ↑ 469 ↓ 166
2020-01-12 U Невиновен (2019) WEB-DLRip от ExKinoRay 1.37 GB ↑ 777 ↓ 223

Отзывы
Зарегистрируйтесь чтобы добавить комментарий.
Обратная связь
Copyleft ©