↑↓torrent.by
Поиск
Логин: Регистрация
Пароль: Восстановить пароль

Туристическая полиция [01-24 из 24] (2018) WEBRip от Generalfilm | КПК

Скачать turisticheskaya-policiya-01-24-iz-2018-webrip-ot-generalfilm-kpk.torrent
U Магнитная ссылка Размер: 2.67 GB Раздают: 69 Качают: 31 Добавлен: 2020-01-12 18:23:15
Туристическая полиция [01-24 из 24] (2018) WEBRip от Generalfilm | КПК

Оригинальное название: Туристическая полиция
Год выпуска: 2018
Жанр:  Комедия, ситком
Режиссер: Константин Колесов
В ролях: Анастасия Ивлеева, Михаил Башкатов, Сергей Пиоро, Александр Ляпин, Денис Бузин, Павел Комаров, Светлана Листова, Анастасия Немец, Евгений Кушпель, Сергей Голюдов

О фильме:
Сотрудник туристической полиции Лера мечтает расследовать серьезные дела и опасные преступления. Но в ее отделе они встречаются так же редко, как хорошее настроение у начальника и сообразительность у коллег по службе. Несмотря на это, Лера принципиально отказывается от «тепленького местечка», заботливо подготовленного отцом-адмиралом, и не бросает работу в спецподразделении по охране общественного порядка Сочи. Но только как продолжать службу и охранять покой гостей города, связавшись с вором и аферистом?

Страна: Россия
Студия: Телеканал ПЯТНИЦА
Продолжительность: 24 x ~ 00:27:00
Перевод: Не требуется

Файл
Формат: MP4
Качество: WEBRip | КПК
Видео: MPEG-4 AVC (x264), 640x360, ~500 kbps, 25.000 fps
Аудио: AAC LC, 44.1 KHz, 2 ch, 128 Kbps
Субтитры: Нет

Семпл

Релиз:


[+] MI

Complete name               : F:КИНОTuristicheskaya.Policiya.AVC.KPK.GFTuristicheskaya.Policiya.S01.2019.AVC.WEBRip.KPK.GFTuristicheskaya.Policiya.s01e01.2019.AVC.WEBRip.KPK.GF.mp4
Format                      : MPEG-4
Codec ID                    : M4V  (isom/iso2/avc1)
File size                   : 125 MiB
Duration                    : 27 min 37 s
Overall bit rate mode       : Variable
Overall bit rate            : 632 kb/s
Writing application         : Lavf53.19.0

Video
ID                          : 1
Format                      : AVC
Format/Info                 : Advanced Video Codec
Format profile              : High@L4.1
Format settings, CABAC      : Yes
Format settings, RefFrames  : 8 frames
Codec ID                    : avc1
Codec ID/Info               : Advanced Video Coding
Duration                    : 27 min 37 s
Bit rate                    : 500 kb/s
Width                       : 640 pixels
Height                      : 360 pixels
Display aspect ratio        : 16:9
Frame rate mode             : Constant
Frame rate                  : 25.000 FPS
Color space                 : YUV
Chroma subsampling          : 4:2:0
Bit depth                   : 8 bits
Scan type                   : Progressive
Bits/(Pixel*Frame)          : 0.087
Stream size                 : 98.7 MiB (79%)
Writing library             : x264 core 148 r2638 7599210
Encoding settings           : cabac=1 / ref=8 / deblock=1:-1:-1 / analyse=0x3:0x133 / me=umh / subme=10 / psy=1 / psy_rd=1.00:0.00 / mixed_ref=1 / me_range=24 / chroma_me=1 / trellis=2 / 8x8dct=1 / cqm=0 / deadzone=21,11 / fast_pskip=1 / chroma_qp_offset=-2 / threads=6 / lookahead_threads=1 / sliced_threads=0 / nr=0 / decimate=1 / interlaced=0 / bluray_compat=0 / constrained_intra=0 / bframes=8 / b_pyramid=2 / b_adapt=2 / b_bias=0 / direct=3 / weightb=1 / open_gop=0 / weightp=2 / keyint=250 / keyint_min=126 / scenecut=40 / intra_refresh=0 / rc_lookahead=40 / rc=2pass / mbtree=1 / bitrate=500 / ratetol=1.0 / qcomp=0.60 / qpmin=0 / qpmax=69 / qpstep=4 / cplxblur=20.0 / qblur=0.5 / ip_ratio=1.40 / aq=1:1.00
Menus                       : 3

Audio
ID                          : 2
Format                      : AAC
Format/Info                 : Advanced Audio Codec
Format profile              : LC
Codec ID                    : 40
Duration                    : 27 min 37 s
Bit rate mode               : Variable
Bit rate                    : 126 kb/s
Channel(s)                  : 2 channels
Channel positions           : Front: L R
Sampling rate               : 44.1 kHz
Frame rate                  : 43.066 FPS (1024 SPF)
Compression mode            : Lossy
Stream size                 : 25.0 MiB (20%)
Default                     : Yes
Alternate group             : 1
Menus                       : 3



Скриншоты:
[+] Всего файлов в раздаче - 24:
Turisticheskaya.Policiya.S01.2019.AVC.WEBRip.KPK.GF/Turisticheskaya.Policiya.s01e23.2019.AVC.WEBRip.KPK.GF.mp4102.04 MB
Turisticheskaya.Policiya.S01.2019.AVC.WEBRip.KPK.GF/Turisticheskaya.Policiya.s01e18.2019.AVC.WEBRip.KPK.GF.mp4105.03 MB
Turisticheskaya.Policiya.S01.2019.AVC.WEBRip.KPK.GF/Turisticheskaya.Policiya.s01e22.2019.AVC.WEBRip.KPK.GF.mp4106.10 MB
Turisticheskaya.Policiya.S01.2019.AVC.WEBRip.KPK.GF/Turisticheskaya.Policiya.s01e21.2019.AVC.WEBRip.KPK.GF.mp4106.34 MB
Turisticheskaya.Policiya.S01.2019.AVC.WEBRip.KPK.GF/Turisticheskaya.Policiya.s01e19.2019.AVC.WEBRip.KPK.GF.mp4106.81 MB
Turisticheskaya.Policiya.S01.2019.AVC.WEBRip.KPK.GF/Turisticheskaya.Policiya.s01e17.2019.AVC.WEBRip.KPK.GF.mp4107.09 MB
Turisticheskaya.Policiya.S01.2019.AVC.WEBRip.KPK.GF/Turisticheskaya.Policiya.s01e16.2019.AVC.WEBRip.KPK.GF.mp4108.80 MB
Turisticheskaya.Policiya.S01.2019.AVC.WEBRip.KPK.GF/Turisticheskaya.Policiya.s01e11.2019.AVC.WEBRip.KPK.GF.mp4109.38 MB
Turisticheskaya.Policiya.S01.2019.AVC.WEBRip.KPK.GF/Turisticheskaya.Policiya.s01e24.2019.AVC.WEBRip.KPK.GF.mp4110.02 MB
Turisticheskaya.Policiya.S01.2019.AVC.WEBRip.KPK.GF/Turisticheskaya.Policiya.s01e09.2019.AVC.WEBRip.KPK.GF.mp4111.63 MB
Turisticheskaya.Policiya.S01.2019.AVC.WEBRip.KPK.GF/Turisticheskaya.Policiya.s01e08.2019.AVC.WEBRip.KPK.GF.mp4113.99 MB
Turisticheskaya.Policiya.S01.2019.AVC.WEBRip.KPK.GF/Turisticheskaya.Policiya.s01e14.2019.AVC.WEBRip.KPK.GF.mp4114.05 MB
Turisticheskaya.Policiya.S01.2019.AVC.WEBRip.KPK.GF/Turisticheskaya.Policiya.s01e10.2019.AVC.WEBRip.KPK.GF.mp4114.53 MB
Turisticheskaya.Policiya.S01.2019.AVC.WEBRip.KPK.GF/Turisticheskaya.Policiya.s01e20.2019.AVC.WEBRip.KPK.GF.mp4114.92 MB
Turisticheskaya.Policiya.S01.2019.AVC.WEBRip.KPK.GF/Turisticheskaya.Policiya.s01e13.2019.AVC.WEBRip.KPK.GF.mp4115.77 MB
Turisticheskaya.Policiya.S01.2019.AVC.WEBRip.KPK.GF/Turisticheskaya.Policiya.s01e06.2019.AVC.WEBRip.KPK.GF.mp4116.33 MB
Turisticheskaya.Policiya.S01.2019.AVC.WEBRip.KPK.GF/Turisticheskaya.Policiya.s01e15.2019.AVC.WEBRip.KPK.GF.mp4116.84 MB
Turisticheskaya.Policiya.S01.2019.AVC.WEBRip.KPK.GF/Turisticheskaya.Policiya.s01e05.2019.AVC.WEBRip.KPK.GF.mp4117.54 MB
Turisticheskaya.Policiya.S01.2019.AVC.WEBRip.KPK.GF/Turisticheskaya.Policiya.s01e07.2019.AVC.WEBRip.KPK.GF.mp4118.95 MB
Turisticheskaya.Policiya.S01.2019.AVC.WEBRip.KPK.GF/Turisticheskaya.Policiya.s01e12.2019.AVC.WEBRip.KPK.GF.mp4118.99 MB
Turisticheskaya.Policiya.S01.2019.AVC.WEBRip.KPK.GF/Turisticheskaya.Policiya.s01e03.2019.AVC.WEBRip.KPK.GF.mp4121.14 MB
Turisticheskaya.Policiya.S01.2019.AVC.WEBRip.KPK.GF/Turisticheskaya.Policiya.s01e02.2019.AVC.WEBRip.KPK.GF.mp4122.95 MB
Turisticheskaya.Policiya.S01.2019.AVC.WEBRip.KPK.GF/Turisticheskaya.Policiya.s01e01.2019.AVC.WEBRip.KPK.GF.mp4124.81 MB
Turisticheskaya.Policiya.S01.2019.AVC.WEBRip.KPK.GF/Turisticheskaya.Policiya.s01e04.2019.AVC.WEBRip.KPK.GF.mp4125.70 MB

Похожие раздачи по запросу - туристическая:
2019-12-07 U Туристическая полиция [01-24 из 24] (2019) WEBRip от Files-x 7.63 GB ↑ 85 ↓ 54

Отзывы
Зарегистрируйтесь чтобы добавить комментарий.
Обратная связь
Copyleft ©