↑↓Torrent.by
Поиск
Логин: Регистрация
Пароль: Восстановить пароль

Невиновен (2019) WEB-DLRip-AVC от ExKinoRay

Скачать nevinoven-2019-web-dlrip-avc-ot-exkinoray.torrent
U Магнитная ссылка Размер: 745.11 MB Раздают: 75 Качают: 25 Добавлен: 2020-01-12 18:23:18
Невиновен (2019) WEB-DLRip-AVC от ExKinoRay

Название: Невиновен
Год выхода: 2019
Жанр:  Драма, боевик
Режиссер: Андзор Емкуж
В ролях: Ахмед Хамурзов, Тимур Кетенчиев, Жанетта Тхашугоева, Татьяна Дрожжина, Кантемир Шипшев, Артур Проскурин, Каншоуби Хашев, Замир Дышеков, Аскер Налоев, Валентин Камергоев

О фильме:
Айтеч, бывший сотрудник спецслужб, вернувшись на родину на Кавказ, работает егерем в горах. Он уговаривает брата отправить племянника Азамата на учебу в Москву, где он сам учился в свое время, для получения достойного образования, но юношу убивают. Съедаемый чувством собственной вины за случившееся и движимый желанием всего рода - найти и наказать виновного, он отправляется в столицу... За что убили юношу? Как его убийца превратился из славного мальчика в жестокого зверя? Как должен поступить дядя: в соответствии с древними традициями кровной мести, по закону или по совести?..

Страна: Россия
Студия: Кавказфильм
Продолжительность: 01:17:56
Язык: Русский

Файл
Формат: MKV
Качество: WEB-DLRip-AVC
Видео: MPEG-4 AVC, 816x340, - 1260 Кбит/с
Аудио:  AAC-HE, 2 ch, - 76 Кбит/с
Субтитры: Нет


[+] MI
Общее
Уникальный идентификатор : 13725163731438038909757122435096898498 (0xA535ED15E29841BEC6C8DE4FB41EBC2)
Полное имя : D:MOVIESNevinoven.2019.WEB-DLRip-AVC.ExKinoRay.mkv
Формат : Matroska
Версия формата : Version 4 / Version 2
Размер файла : 745 Мбайт
Продолжительность : 1 ч. 17 м.
Общий поток : 1337 Кбит/сек
Дата кодирования : UTC 2020-01-12 11:53:45
Программа кодирования : mkvmerge v35.0.0 ('All The Love In The World') 64-bit
Библиотека кодирования : libebml v1.3.9 + libmatroska v1.5.2

Видео
Идентификатор : 1
Формат : AVC
Формат/Информация : Advanced Video Codec
Профиль формата : High@L4.1
Параметр CABAC формата : Да
Параметр RefFrames формата : 12 кадров
Идентификатор кодека : V_MPEG4/ISO/AVC
Продолжительность : 1 ч. 17 м.
Битрейт : 1260 Кбит/сек
Ширина : 816 пикселей
Высота : 340 пикселей
Соотношение сторон : 2,40:1
Режим частоты кадров : Постоянный
Частота кадров : 24,000 кадра/сек
Цветовое пространство : YUV
Субдискретизация насыщенности : 4:2:0
Битовая глубина : 8 бит
Тип развёртки : Прогрессивная
Бит/(Пиксели*Кадры) : 0.189
Размер потока : 702 Мбайт (94%)
Библиотека кодирования : x264 core 159 r2991 1771b55
Настройки программы : cabac=1 / ref=12 / deblock=1:-3:-3 / analyse=0x3:0x133 / me=umh / subme=10 / psy=1 / psy_rd=1.00:0.10 / mixed_ref=1 / me_range=32 / chroma_me=1 / trellis=2 / 8x8dct=1 / cqm=0 / deadzone=21,11 / fast_pskip=0 / chroma_qp_offset=-3 / threads=6 / lookahead_threads=1 / sliced_threads=0 / nr=0 / decimate=0 / interlaced=0 / bluray_compat=0 / constrained_intra=0 / bframes=12 / b_pyramid=2 / b_adapt=2 / b_bias=0 / direct=3 / weightb=1 / open_gop=0 / weightp=2 / keyint=240 / keyint_min=24 / scenecut=40 / intra_refresh=0 / rc_lookahead=40 / rc=2pass / mbtree=1 / bitrate=1260 / ratetol=1.0 / qcomp=0.70 / qpmin=0 / qpmax=69 / qpstep=4 / cplxblur=20.0 / qblur=0.5 / ip_ratio=1.40 / aq=3:1.00
Default : Да
Forced : Нет

Аудио
Идентификатор : 2
Формат : AAC
Формат/Информация : Advanced Audio Codec
Профиль формата : HE-AAC / LC
Идентификатор кодека : A_AAC
Продолжительность : 1 ч. 17 м.
Битрейт : 76,0 Кбит/сек
Каналы : 2 канала
Расположение каналов : Front: L R
Частота : 48,0 КГц / 24,0 КГц
Частота кадров : 23,438 кадра/сек (1024 SPF)
Метод сжатия : С потерями
Задержка видео : 31 мс.
Размер потока : 42,4 Мбайт (6%)
Язык : Russian
Default : Да
Forced : Нет



Скриншоты:
[+] Всего файлов в раздаче - 1:
Nevinoven.2019.WEB-DLRip-AVC.ExKinoRay.mkv745.11 MB

Похожие раздачи по запросу - невиновен:
2020-01-12 U Невиновен (2019) WEB-DLRip от GeneralFilm 744.94 MB ↑ 101 ↓ 37
2020-01-12 U Невиновен (2019) WEB-DL 720p от ExKinoRay 1.61 GB ↑ 273 ↓ 63
2020-01-12 U Невиновен (2019) WEB-DL 1080p от ExKinoRay 2.99 GB ↑ 469 ↓ 163
2020-01-12 U Невиновен (2019) WEB-DLRip от ExKinoRay 1.37 GB ↑ 775 ↓ 222

Отзывы
Зарегистрируйтесь чтобы добавить комментарий.
Обратная связь
Copyleft ©