↑↓Torrent.by
Поиск
Логин: Регистрация
Пароль: Восстановить пароль

Мюзикл на льду Татьяны Навки «Спящая красавица» (2020) HDTVRip от GeneralFilm

Скачать myuzikl-na-ldu-tatyany-navki-spyaschaya-krasavica-2020-hdtvrip-ot-generalfilm.torrent
U Магнитная ссылка Размер: 1.32 GB Раздают: 63 Качают: 19 Добавлен: 2020-01-12 18:23:22
Мюзикл на льду Татьяны Навки «Спящая красавица» (2020) HDTVRip от GeneralFilm

Год выпуска: 2020
Жанр:  Мюзикл, ледовое шоу
Выпущено: Россия, Первый канал

О фильме: В ледовом шоу «Спящая красавица. Легенда двух королевств» Татьяна Навка приготовила для зрителей все самое лучшее: сложнейшие акробатические номера — сальто и вращения на тросах на высоте нескольких десятков метров, проекции на льду, яркое фаер-шоу, потрясающие декорации-трансформеры и даже настоящую молнию в качестве спецэффекта. Но самое ценное в «Спящей красавице» — это участие в шоу сильнейшей фигуристки планеты, обладательницы всех титулов в фигурном катании Алины Загитовой. «Алина Загитова — наш главный новогодний подарок всем зрителям. Каждый ее выход — завораживающая феерия. Наше шоу — эксклюзивная возможность насладиться выступлением Алины Загитовой и увидеть ее в абсолютно новом, сказочном образе», — отметила Татьяна Навка. Также в ледовом спектакле задействованы пятикратный чемпион США и двукратный победитель чемпионата Четырех континентов в танцах на льду Петр Чернышев, многократные чемпионы Европы и мира Маргарита Дробязко и Повилас Ванагас. «Спящая красавица» стала дебютом для самой юной участницы шоу Надежды Песковой. Одиночнице Загитовой пришлось встать в пару с семикратным чемпионом Италии Ондржеем Готареком. Алина признавалась, что самым сложным в работе над мюзиклом для нее были вовсе не прыжки, а парные поддержки. Ведущие музыкальные партии исполняют звезды российской эстрады: Ани Лорак, Александр Панайотов, Филипп Киркоров, Екатерина Варнава, Гарик Харламов. За Злого Духа поет Григорий Лепс.

Качество: HDTVRip
Видео: XviD, 1791 Кбит/с, 720х400, 25 кадр/с
Аудио: Русский (AC3, 2 ch, 192 Кбит/с)
Продолжительность: 01:35:05
Перевод: Не требуется
Субтитры: нет

Релиз:
[+] MediaInfo

Общее
Полное имя                               : D:Spjashhaja krasavica.Mjuzikl.HDTVRip.GeneralFilm.avi
Формат                                   : AVI
Формат/Информация                        : Audio Video Interleave
Размер файла                             : 1,32 Гбайт
Продолжительность                        : 1 ч. 35 м.
Общий поток                              : 1994 Кбит/сек

Видео
Идентификатор                            : 0
Формат                                   : MPEG-4 Visual
Профиль формата                          : Advanced Simple@L5
Параметр BVOP формата                    : 1
Параметр QPel формата                    : Нет
Параметр GMC формата                     : Без точки перехода
Параметр матрицы формата                 : Выборочная
Идентификатор кодека                     : XVID
Идентификатор кодека/Подсказка           : XviD
Продолжительность                        : 1 ч. 35 м.
Битрейт                                  : 1791 Кбит/сек
Ширина                                   : 720 пикселей
Высота                                   : 400 пикселей
Соотношение сторон                       : 16:9
Частота кадров                           : 25,000 кадров/сек
Цветовое пространство                    : YUV
Субдискретизация насыщенности            : 4:2:0
Битовая глубина                          : 8 бит
Тип развёртки                            : Прогрессивная
Метод сжатия                             : С потерями
Бит/(Пиксели*Кадры)                      : 0.249
Размер потока                            : 1,19 Гбайт (90%)
Библиотека кодирования                   : XviD 1.2.1 (UTC 2008-12-04)

Аудио
Идентификатор                            : 1
Формат                                   : AC-3
Формат/Информация                        : Audio Coding 3
Расширение режима                        : CM (complete main)
Параметр Endianness формата              : Big
Идентификатор кодека                     : 2000
Продолжительность                        : 1 ч. 35 м.
Вид битрейта                             : Постоянный
Битрейт                                  : 192 Кбит/сек
Каналы                                   : 2 канала
Расположение каналов                     : Front: L R
Частота                                  : 48,0 КГц
Битовая глубина                          : 16 бит
Метод сжатия                             : С потерями
Размер потока                            : 131 Мбайт (10%)
Выравнивание                             : Соединение по промежуткам
Продолжительность промежутка             : 32  мс. (0,80 видеокадр)




Скриншоты:
[+] Всего файлов в раздаче - 1:
Spjashhaja krasavica.Mjuzikl.HDTVRip.GeneralFilm.avi1.32 GB

Похожие раздачи по запросу - мюзикл:
2020-01-13 U Мюзикл на льду Татьяны Навки «Спящая красавица» (2020) HDTV 1080i от GeneralFilm 1К8.00 GB ↑ 31 ↓ 12

Отзывы
Зарегистрируйтесь чтобы добавить комментарий.
Обратная связь
Copyleft ©