↑↓torrent.by
Поиск
Логин: Регистрация
Пароль: Восстановить пароль

Семейка Аддамс / The Addams Family (2019) BDRip 720p | D

Скачать semeyka-addams-the-family-2019-bdrip-720p-d.torrent
U Магнитная ссылка Размер: 4.58 GB Раздают: 54 Качают: 13 Добавлен: 2020-01-14 06:51:59
Семейка Аддамс / The Addams Family (2019) BDRip 720p | D

«Думаете, ваша семейка странная?»

Название: Семейка Аддамс
Оригинальное название: The Addams Family
Год выхода: 2019
Жанр: Мультфильм, ужасы, фэнтези, комедия, семейный
Режиссер: Грег Тирнан, Конрад Вернон
Роли озвучивают: Оскар Айзек, Шарлиз Терон, Хлоя Грейс Морец, Финн Вулфард, Ник Кролл, Снуп Догг, Бетт Мидлер, Эллисон Джэнни, Мартин Шорт, Кэтрин О`Хара

О фильме:
Папа любит долгие прогулки в ненастную погоду. Мама считает, что черный цвет самый яркий. У детей кладбище — любимая площадка для игр. Бабушка выпивает пару капель яда перед сном. Вы все еще думаете, что ваши родственники странные? Знакомьтесь — семейка Аддамс.

Страна: Канада, США
Студия: BermanBraun, Bron Creative, Bron Studios, Cinesite Animation, Creative Wealth Media Finance, Metro-Goldwyn-Mayer (MGM), Nitrogen Studios Canada
Продолжительность: 01:27:01
Перевод: Дублированный | Онлайн кинотеатр, WETY

Файл
Качество: BDRip 720p
Формат: MKV
Кодек: MPEG-4 AVC
Видео: 1280x690 (1.85:1), 23,976 fps, MPEG-4 AVC ~ 6309 Кbps avg, 0.298 bit/pixel
Аудио: AC3, 48 kHz, 2 ch, ~192.00 kbps avg | русский | Онлайн кинотеатр
Аудио: AC3, 48 kHz, 6 ch, ~384.00 kbps avg | русский | WETY
Аудио: AC3, 48 kHz, 6 ch, ~640.00 kbps avg | английский | Оригинал

Субтитры: Английские (Full, SDH)
Семпл


[+] Инфо-файл
Общее
Уникальный идентификатор                 : 130192950425151700744475492986783223733 (0x61F2400B9CCAF2DC3A9923B601874FB5)
Полное имя                               : The.Addams.Family.2019.720p.BluRay.x264.mkv
Формат                                   : Matroska
Версия формата                           : Version 4
Размер файла                             : 4,58 Гбайт
Продолжительность                        : 1 ч. 27 м.
Общий поток                              : 7493 Кбит/сек
Название фильма                          : Семейка Аддамс / The Addams Family (2019)
Дата кодирования                         : UTC 2020-01-13 16:58:22
Программа кодирования                    : mkvmerge v41.0.0 ('Smarra') 64-bit
Библиотека кодирования                   : libebml v1.3.9 + libmatroska v1.5.2
Обложка                                  : Yes
Attachments                              : cover.jpg

Видео
Идентификатор                            : 1
Формат                                   : AVC
Формат/Информация                        : Advanced Video Codec
Профиль формата                          : High@L4.1
Настройки формата                        : CABAC / 9 Ref Frames
Параметр CABAC формата                   : Да
Параметр RefFrames формата               : 9 кадров
Идентификатор кодека                     : V_MPEG4/ISO/AVC
Продолжительность                        : 1 ч. 27 м.
Битрейт                                  : 6309 Кбит/сек
Ширина                                   : 1280 пикселей
Высота                                   : 690 пикселей
Соотношение сторон                       : 1,85:1
Режим частоты кадров                     : Постоянный
Частота кадров                           : 23,976 (24000/1001) кадра/сек
Цветовое пространство                    : YUV
Субдискретизация насыщенности            : 4:2:0
Битовая глубина                          : 8 бит
Тип развёртки                            : Прогрессивная
Бит/(Пиксели*Кадры)                      : 0.298
Размер потока                            : 3,83 Гбайт (84%)
Заголовок                                : iFT
Библиотека кодирования                   : x264 core 159 r2991+49 ~ Encoded by Mocunaman in Portugal
Настройки программы                      : cabac=1 / ref=9 / deblock=1:-3:-3 / analyse=0x3:0x113 / me=umh / subme=10 / psy=1 / fade_compensate=0.00 / psy_rd=1.00:0.00 / mixed_ref=1 / me_range=32 / chroma_me=1 / trellis=2 / 8x8dct=1 / cqm=0 / deadzone=21,11 / fast_pskip=0 / chroma_qp_offset=-2 / threads=22 / lookahead_threads=3 / sliced_threads=0 / nr=0 / decimate=0 / interlaced=0 / bluray_compat=0 / constrained_intra=0 / fgo=0 / bframes=8 / b_pyramid=2 / b_adapt=2 / b_bias=0 / direct=3 / weightb=1 / open_gop=0 / weightp=2 / keyint=250 / keyint_min=23 / scenecut=40 / intra_refresh=0 / rc_lookahead=60 / rc=crf / mbtree=0 / crf=14.5000 / qcomp=0.60 / qpmin=0:0:0 / qpmax=69:69:69 / qpstep=4 / vbv_maxrate=30000 / vbv_bufsize=38000 / crf_max=0.0 / nal_hrd=none / filler=0 / ip_ratio=1.30 / pb_ratio=1.20 / aq=3:0.85 / aq-sensitivity=10.00 / aq-factor=1.00:1.00:1.00 / aq2=0 / aq3=0
Язык                                     : English
Default                                  : Да
Forced                                   : Нет
Цветовой диапазон                        : Limited
Основные цвета                           : BT.709
Характеристики трансфера                 : BT.709
Коэффициенты матрицы                     : BT.709

Аудио #1
Идентификатор                            : 2
Формат                                   : AC-3
Формат/Информация                        : Audio Coding 3
Коммерческое название                    : Dolby Digital
Идентификатор кодека                     : A_AC3
Продолжительность                        : 1 ч. 27 м.
Вид битрейта                             : Постоянный
Битрейт                                  : 192 Кбит/сек
Каналы                                   : 2 канала
ChannelLayout                            : L R
Частота                                  : 48,0 КГц
Частота кадров                           : 31,250 кадров/сек (1536 SPF)
Метод сжатия                             : С потерями
Размер потока                            : 120 Мбайт (3%)
Заголовок                                : DUB |  Онлайн кинотеатр
Язык                                     : Russian
Default                                  : Да
Forced                                   : Нет

Аудио #2
Идентификатор                            : 3
Формат                                   : AC-3
Формат/Информация                        : Audio Coding 3
Коммерческое название                    : Dolby Digital
Идентификатор кодека                     : A_AC3
Продолжительность                        : 1 ч. 27 м.
Вид битрейта                             : Постоянный
Битрейт                                  : 384 Кбит/сек
Каналы                                   : 6 каналов
ChannelLayout                            : L R C LFE Ls Rs
Частота                                  : 48,0 КГц
Частота кадров                           : 31,250 кадров/сек (1536 SPF)
Метод сжатия                             : С потерями
Размер потока                            : 240 Мбайт (5%)
Заголовок                                : DUB |  WetY
Язык                                     : Russian
Default                                  : Нет
Forced                                   : Нет

Аудио #3
Идентификатор                            : 4
Формат                                   : AC-3
Формат/Информация                        : Audio Coding 3
Коммерческое название                    : Dolby Digital
Идентификатор кодека                     : A_AC3
Продолжительность                        : 1 ч. 27 м.
Вид битрейта                             : Постоянный
Битрейт                                  : 640 Кбит/сек
Каналы                                   : 6 каналов
ChannelLayout                            : L R C LFE Ls Rs
Частота                                  : 48,0 КГц
Частота кадров                           : 31,250 кадров/сек (1536 SPF)
Метод сжатия                             : С потерями
Размер потока                            : 398 Мбайт (8%)
Заголовок                                : Original
Язык                                     : English
Default                                  : Нет
Forced                                   : Нет

Текст #1
Идентификатор                            : 5
Формат                                   : UTF-8
Идентификатор кодека                     : S_TEXT/UTF8
Идентификатор кодека/Информация          : UTF-8 Plain Text
Продолжительность                        : 1 ч. 17 м.
Битрейт                                  : 63 бит/сек
ElementCount                             : 1089
Размер потока                            : 36,3 Кбайт (0%)
Заголовок                                : Full
Язык                                     : English
Default                                  : Нет
Forced                                   : Нет

Текст #2
Идентификатор                            : 6
Формат                                   : UTF-8
Идентификатор кодека                     : S_TEXT/UTF8
Идентификатор кодека/Информация          : UTF-8 Plain Text
Продолжительность                        : 1 ч. 25 м.
Битрейт                                  : 75 бит/сек
ElementCount                             : 1406
Размер потока                            : 47,4 Кбайт (0%)
Заголовок                                : SDH
Язык                                     : English
Default                                  : Нет
Forced                                   : Нет

Меню
00:00:00.000                             : :Chapter 01
00:05:08.558                             : :Chapter 02
00:10:35.468                             : :Chapter 03
00:15:46.946                             : :Chapter 04
00:19:35.257                             : :Chapter 05
00:25:14.805                             : :Chapter 06
00:29:25.764                             : :Chapter 07
00:34:20.558                             : :Chapter 08
00:39:46.968                             : :Chapter 09
00:45:01.741                             : :Chapter 10
00:49:07.611                             : :Chapter 11
00:53:40.926                             : :Chapter 12
00:56:36.560                             : :Chapter 13
01:00:01.014                             : :Chapter 14
01:03:45.947                             : :Chapter 15
01:06:02.458                             : :Chapter 16
01:10:54.584                             : :Chapter 17
01:18:09.476                             : :Chapter 18
01:20:21.316                             : :Chapter 19
01:21:11.325                             : :Chapter 20



Скриншоты:
[+] Всего файлов в раздаче - 1:
The.Addams.Family.2019.720p.BluRay.x264.mkv4.58 GB

Показать еще раздачи по запросу семейка:
2020-04-12 U Семейка Аддамс / The Addams Family (2019) BDRip от MegaPeer | Лицензия 1.46 GB ↑ 110 ↓ 38
2020-02-17 U Семейка Аддамс / The Addams Family (2019) BDRip от MegaPeer | iTunes 1.42 GB ↑ 72 ↓ 8
2020-01-14 U Семейка Аддамс / The Addams Family (2019) BDRip | А 1.46 GB ↑ 103 ↓ 16
2020-01-11 U Семейка Аддамс / The Addams Family (2019) BDRip от MegaPeer | D 1.46 GB ↑ 5991 ↓ 254
2019-12-25 U Семейка Аддамс / The Addams Family (2019) WEB-DLRip-AVC от ExKinoRay | D 1.57 GB ↑ 198 ↓ 40
2019-12-25 U Семейка Аддамс / The Addams Family (2019) WEB-DLRip от MegaPeer | D 1.46 GB ↑ 689 ↓ 133
2019-12-25 U Семейка Аддамс / The Addams Family (2019) WEB-DL 1080p от селезень | D 3К3.51 GB ↑ 1106 ↓ 308

Отзывы
Зарегистрируйтесь чтобы добавить комментарий.
Обратная связь
Copyleft ©