↑↓Torrent.by
Поиск
Логин: Регистрация
Пароль: Восстановить пароль

Любовь по расчёту / The Revenger: An Unromantic Comedy / For Love or Money (2019) WEB-DL 1080p | iTunes

Скачать lyubov-po-raschetu-the-revenger-an-unromantic-comedy-for-love-or-money-2019-web-dl-1080p-itunes.torrent
U Магнитная ссылка Размер: 3.29 GB Раздают: 79 Качают: 43 Добавлен: 2020-01-14 06:52:42
Любовь по расчёту / The Revenger: An Unromantic Comedy / For Love or Money (2019) WEB-DL 1080p | iTunes

Название: Любовь по расчёту
Оригинальное название: The Revenger: An Unromantic Comedy / For Love or Money
Год выпуска: 2019
Жанр:  Комедия
Режиссер: Марк Мерфи
В ролях: Роберт Казински, Саманта Баркс, Рейчел Херд-Вуд, Эдвард Спелирс, Тони Вэй, Айван Кэй, Анна Чэнселлор, Дэвид Харгривз, Чарли МакДугалл, Тала Гувейя

О фильме: Марк собирается заработать 20 миллионов фунтов стерлингов от коммерческой сделки, которую он держит в секрете от всех, даже от своего лучшего друга Тима. Более того, случайная встреча на похоронах дала ему еще один шанс с любовью всей его жизни Конни. Сказочный роман приобретает неожиданный поворот, когда Марк узнает, что его будущая невеста, имеет корыстные намерения.

Страна: Великобритания
Студия: Goldfinch Studios, Solar Productions
Продолжительность: 01:35:28
Перевод: Дублированный | iTunes

Файл
Качество: WEB-DL 1080p
Контейнер: MKV
Видео: MPEG-4 AVC, 1920x800, 4553 Kbps, 23.976 fps
Аудио: Russian: AC3, 6 ch, 48 kHz, 384 kbps - DUB, iTunes
Субтитры: Нет


[+] MediaInfo
General
Unique ID                                : 254954426667594594427885432893662190989 (0xBFCE6FBCFA46DEF78E4E3E4FD83A5D8D)
Complete name                            : Lyubov.po.raschetu.2019.WEB-DL.1080p.mkv
Format                                   : Matroska
Format version                           : Version 4 / Version 2
File size                                : 3.29 GiB
Duration                                 : 1 h 35 min
Overall bit rate                         : 4 938 kb/s
Encoded date                             : UTC 2020-01-13 18:51:48
Writing application                      : mkvmerge v7.8.0 ('River Man') 32bit built on Apr  3 2015 12:11:22
Writing library                          : libebml v1.3.1 + libmatroska v1.4.2

Video
ID                                       : 1
Format                                   : AVC
Format/Info                              : Advanced Video Codec
Format profile                           : High@L4
Format settings, CABAC                   : Yes
Format settings, RefFrames               : 5 frames
Codec ID                                 : V_MPEG4/ISO/AVC
Duration                                 : 1 h 35 min
Bit rate                                 : 4 553 kb/s
Width                                    : 1 920 pixels
Height                                   : 800 pixels
Display aspect ratio                     : 2.40:1
Frame rate mode                          : Constant
Frame rate                               : 23.976 (24000/1001) FPS
Color space                              : YUV
Chroma subsampling                       : 4:2:0
Bit depth                                : 8 bits
Scan type                                : Progressive
Bits/(Pixel*Frame)                       : 0.124
Stream size                              : 3.04 GiB (92%)
Language                                 : English
Default                                  : Yes
Forced                                   : No
Color range                              : Limited
Color primaries                          : BT.709
Transfer characteristics                 : BT.709
Matrix coefficients                      : BT.709

Audio
ID                                       : 2
Format                                   : AC-3
Format/Info                              : Audio Coding 3
Format settings, Endianness              : Big
Codec ID                                 : A_AC3
Duration                                 : 1 h 35 min
Bit rate mode                            : Constant
Bit rate                                 : 384 kb/s
Channel(s)                               : 6 channels
Channel positions                        : Front: L C R, Side: L R, LFE
Sampling rate                            : 48.0 kHz
Frame rate                               : 31.250 FPS (1536 SPF)
Bit depth                                : 16 bits
Compression mode                         : Lossy
Stream size                              : 262 MiB (8%)
Title                                    : iTunes
Language                                 : Russian
Service kind                             : Complete Main
Default                                  : Yes
Forced                                   : No

Menu
00:00:00.000                             : en:Глава 1
00:08:24.337                             : en:Глава 2
00:16:26.485                             : en:Глава 3
00:23:53.514                             : en:Глава 4
00:32:34.743                             : en:Глава 5
00:41:49.171                             : en:Глава 6
00:50:16.136                             : en:Глава 7
00:58:32.257                             : en:Глава 8
01:06:55.760                             : en:Глава 9
01:15:02.412                             : en:Глава 10
01:23:34.006                             : en:Глава 11



Скриншоты:
[+] Всего файлов в раздаче - 1:
Lyubov.po.raschetu.2019.WEB-DL.1080p.mkv3.29 GB

Показать еще раздачи по запросу любовь:
2020-01-15 U Любовь по расчёту / The Revenger: An Unromantic Comedy / For Love or Money (2019) WEB-DLRip | iTunes 744.28 MB ↑ 42 ↓ 4
2020-01-14 U Любовь по расчёту / The Revenger: An Unromantic Comedy / For Love or Money (2019) WEB-DLRip | iTunes 1.46 GB ↑ 95 ↓ 32
2019-12-21 U Денис Майданов - Обречен на Любовь (2019) MP3 119.50 MB ↑ 48 ↓ 14
2019-12-21 U Первая любовь / First Love / Hatsukoi (2019) WEB-DLRip от Portablius | iTunes 746.05 MB ↑ 64 ↓ 7
2019-12-20 U Первая любовь / First Love / Hatsukoi (2019) WEB-DL 1080p | iTunes 3.58 GB ↑ 168 ↓ 92
2019-12-20 U Первая любовь / First Love / Hatsukoi (2019) WEB-DLRip от MegaPeer | iTunes 1.46 GB ↑ 153 ↓ 51
2019-12-08 U Антикиллер Д.К: Любовь без памяти (2009) HDRip-AVC от ExKinoRay 746.01 MB ↑ 118 ↓ 16

Отзывы
Зарегистрируйтесь чтобы добавить комментарий.
Обратная связь
Copyleft ©